The Ministry of Ungentlemanly Warfare (2024) (BDRip 1080p HEVC HDR10 EAC3 Atmos) [OEP][87C5F749].mkv +1

Torrent info
Uploader: Anime-Land
Language: English English
Category:
LA - Sub
Labels:
Group: Anime Land
Links:
Download: Torrent Magnet XDCC
Actions: Report
Scrape info
Date: 2024-07-10 14:21:01 UTC
File size: 4.7 GB
Seeders: 1
Leechers: 5
Completed: 71
Transferred: 335 GB
Info Hash: 957d78330324140d98eda2a6dfa8f21749236a25
Torrent Info: [AniDex Torrent #611439] Anime Land Team

Description






UHD 4K BluRay to 1080p, HDR10 Video, Atmos Audio.

Source: The.Ministry.of.Ungentlemanly.Warfare.2024.UHD.BluRay.2160p.TrueHD.Atmos.7.1.HEVC.REMUX-FraMeSToR (Thanks)

preset veryslow, crf 14, qcomp 0.80

Enjoy The High Quality ^_^


General
Unique ID : 311568621162519728002829976970297288594 (0xEA65EF0875AB4A4A46843BEA131B2792)
Complete name : The Ministry of Ungentlemanly Warfare (2024) (BDRip 1080p HEVC HDR10 EAC3 Atmos) [OEP][87C5F749].mkv
Format : Matroska
Format version : Version 4
File size : 4.72 GiB
Duration : 2 h 0 min
Overall bit rate : 5 611 kb/s
Frame rate : 23.976 FPS
Movie name : The Ministry of Ungentlemanly Warfare (2024) (BDRip 1080p HEVC HDR10 EAC3 Atmos) [OEP][Encode By Omar]
Encoded date : 2024-07-10 13:47:38 UTC
Writing application : mkvmerge v85.0 ('Shame For You') 64-bit
Writing library : libebml v1.4.5 + libmatroska v1.7.1
Attachments : BAHIJ_MITRA-BOLD.TTF

Video
ID : 1
Format : HEVC
Format/Info : High Efficiency Video Coding
Format profile : Main 10@L5.1@High
HDR format : SMPTE ST 2086, HDR10 compatible
Codec ID : V_MPEGH/ISO/HEVC
Duration : 2 h 0 min
Bit rate : 4 783 kb/s
Width : 1 920 pixels
Height : 804 pixels
Display aspect ratio : 2.40:1
Frame rate mode : Constant
Frame rate : 23.976 (24000/1001) FPS
Color space : YUV
Chroma subsampling : 4:2:0 (Type 2)
Bit depth : 10 bits
Bits/(Pixel*Frame) : 0.129
Stream size : 4.02 GiB (85%)
Title : UHD BDRip By Omar
Writing library : x265 3.6+30-40fd1257c:[DJATOM's Mod][Windows][GCC 13.2.0][64 bit] 10bit
Encoding settings : cpuid=1111039 / frame-threads=5 / numa-pools=32,32 / wpp / no-pmode / no-pme / no-psnr / no-ssim / log-level=2 / input-csp=1 / input-res=1920x804 / interlace=0 / total-frames=173136 / level-idc=51 / high-tier=1 / uhd-bd=0 / ref=4 / no-allow-non-conformance / repeat-headers / annexb / aud / no-eob / no-eos / hrd / info / hash=0 / temporal-layers=0 / open-gop / min-keyint=23 / keyint=250 / gop-lookahead=0 / bframes=16 / b-adapt=2 / b-pyramid / bframe-bias=0 / rc-lookahead=40 / lookahead-slices=0 / scenecut=40 / no-hist-scenecut / radl=0 / no-splice / no-intra-refresh / ctu=64 / min-cu-size=8 / rect / amp / max-tu-size=32 / tu-inter-depth=3 / tu-intra-depth=3 / limit-tu=0 / rdoq-level=2 / dynamic-rd=0.00 / no-ssim-rd / signhide / no-tskip / nr-intra=0 / nr-inter=0 / no-constrained-intra / strong-intra-smoothing / max-merge=5 / limit-refs=0 / no-limit-modes / me=3 / subme=4 / merange=57 / temporal-mvp / no-frame-dup / no-hme / weightp / weightb / no-analyze-src-pics / deblock=-3:-3 / sao / no-sao-non-deblock / rd=6 / selective-sao=4 / no-early-skip / rskip / no-fast-intra / no-tskip-fast / no-cu-lossless / b-intra / no-splitrd-skip / rdpenalty=0 / psy-rd=2.00 / psy-rdoq=1.00 / no-rd-refine / no-lossless / cbqpoffs=0 / crqpoffs=0 / rc=crf / crf=14.0 / qcomp=0.80 / qpstep=4 / stats-write=0 / stats-read=0 / vbv-maxrate=160000 / vbv-bufsize=160000 / vbv-init=0.9 / min-vbv-fullness=50.0 / max-vbv-fullness=80.0 / crf-max=0.0 / crf-min=0.0 / ipratio=1.40 / pbratio=1.30 / aq-mode=2 / aq-strength=1.00 / aq-bias-strength=1.00 / cutree / zone-count=0 / no-strict-cbr / qg-size=32 / no-rc-grain / qpmax=69 / qpmin=0 / no-const-vbv / sar=0 / overscan=0 / videoformat=5 / range=0 / colorprim=9 / transfer=16 / colormatrix=9 / chromaloc=1 / chromaloc-top=2 / chromaloc-bottom=2 / display-window=0 / master-display=G(13250,34500)B(7500,3000)R(34000,16000)WP(15635,16450)L(10000000,1) / cll=833,227 / min-luma=0 / max-luma=1023 / log2-max-poc-lsb=8 / vui-timing-info / vui-hrd-info / slices=1 / no-opt-qp-pps / no-opt-ref-list-length-pps / no-multi-pass-opt-rps / scenecut-bias=0.05 / no-opt-cu-delta-qp / no-aq-motion / hdr10 / hdr10-opt / no-dhdr10-opt / no-idr-recovery-sei / analysis-reuse-level=0 / analysis-save-reuse-level=0 / analysis-load-reuse-level=0 / scale-factor=0 / refine-intra=0 / refine-inter=0 / refine-mv=1 / refine-ctu-distortion=0 / no-limit-sao / ctu-info=0 / no-lowpass-dct / refine-analysis-type=0 / copy-pic=1 / max-ausize-factor=1.0 / no-dynamic-refine / no-single-sei / no-hevc-aq / no-svt / no-field / qp-adaptation-range=1.00 / scenecut-aware-qp=0conformance-window-offsets / right=0 / bottom=0 / decoder-max-rate=0 / no-vbv-live-multi-pass / no-mcstf / no-sbrc
Language : English
Default : Yes
Forced : No
Color range : Limited
Color primaries : BT.2020
Transfer characteristics : PQ
Matrix coefficients : BT.2020 non-constant
Mastering display color primar : Display P3
Mastering display luminance : min: 0.0001 cd/m2, max: 1000 cd/m2
Maximum Content Light Level : 833 cd/m2
Maximum Frame-Average Light Le : 227 cd/m2

Audio
ID : 2
Format : E-AC-3 JOC
Format/Info : Enhanced AC-3 with Joint Object Coding
Commercial name : Dolby Digital Plus with Dolby Atmos
Codec ID : A_EAC3
Duration : 2 h 0 min
Bit rate mode : Constant
Bit rate : 768 kb/s
Channel(s) : 6 channels
Channel layout : L R C LFE Ls Rs
Sampling rate : 48.0 kHz
Frame rate : 31.250 FPS (1536 SPF)
Compression mode : Lossy
Stream size : 661 MiB (14%)
Title : EAC3 Atmos 768 Kbps 5.1 (Untouched)
Language : English
Service kind : Complete Main
Default : Yes
Forced : No
Complexity index : 16
Number of dynamic objects : 15
Bed channel count : 1 channel
Bed channel configuration : LFE

Text #1
ID : 3
Format : PGS
Muxing mode : zlib
Codec ID : S_HDMV/PGS
Codec ID/Info : Picture based subtitle format used on BDs/HD-DVDs
Duration : 1 h 47 min
Bit rate : 38.2 kb/s
Frame rate : 0.409 FPS
Count of elements : 2626
Stream size : 29.3 MiB (1%)
Title : ENGLISH-PGS Sub (Untouched)
Language : English
Default : Yes
Forced : No

Text #2
ID : 4
Format : PGS
Muxing mode : zlib
Codec ID : S_HDMV/PGS
Codec ID/Info : Picture based subtitle format used on BDs/HD-DVDs
Duration : 1 h 59 min
Bit rate : 51.1 kb/s
Frame rate : 0.524 FPS
Count of elements : 3744
Stream size : 43.6 MiB (1%)
Title : ENGLISH-SDH-PGS Sub (Untouched)
Language : English
Default : Yes
Forced : No

Text #3
ID : 5
Format : PGS
Muxing mode : zlib
Codec ID : S_HDMV/PGS
Codec ID/Info : Picture based subtitle format used on BDs/HD-DVDs
Duration : 1 h 52 min
Bit rate : 36.4 kb/s
Frame rate : 0.403 FPS
Count of elements : 2724
Stream size : 29.4 MiB (1%)
Title : SPANISH-PGS Sub (Untouched)
Language : Spanish
Default : Yes
Forced : No

Text #4
ID : 6
Format : ASS
Codec ID : S_TEXT/ASS
Codec ID/Info : Advanced Sub Station Alpha
Duration : 1 h 49 min
Bit rate : 124 b/s
Frame rate : 0.177 FPS
Count of elements : 1163
Compression mode : Lossless
Stream size : 99.7 KiB (0%)
Title : ARABIC-ASS Sub (iTunes)
Language : Arabic
Default : Yes
Forced : No

Menu
00:00:00.000 : en:Chapter 1
00:07:21.358 : en:Chapter 2
00:17:44.438 : en:Chapter 3
00:24:01.231 : en:Chapter 4
00:34:43.164 : en:Chapter 5
00:41:41.374 : en:Chapter 6
00:49:37.308 : en:Chapter 7
00:56:07.739 : en:Chapter 8
01:04:16.895 : en:Chapter 9
01:08:11.671 : en:Chapter 10
01:12:43.317 : en:Chapter 11
01:20:31.785 : en:Chapter 12
01:26:37.692 : en:Chapter 13
01:33:49.624 : en:Chapter 14
01:40:57.551 : en:Chapter 15
01:46:29.258 : en:Chapter 16

Comments

Default User Logo xofalovo 2023-10-02 04:09:04 UTC
低价出售各大网站vip账号,vip账号共享, vip账号出租, vip账号购买, vip账号破解,论坛vip,网站vip,共享vip,邀请码购买, 共享账号,草榴社区邀请码,第一会所账号,寻欢阁vip账号,寻花论坛vip账号,一品探花vip账号,98堂账号,楼凤网站账号,桃花族账号,自习把,追号把,svip村,藏号把,觅号网,觅乐网,vip解析,共享会员,下单网站:https://vipzhzj.com
The Ministry of Ungentlemanly Warfare (2024) (BDRip 1080p HEVC HDR10 EAC3 Atmos) [OEP][87C5F749].mkv (4.7 GB)
Tracker details
Tracker 1: http://anidex.moe:6969/announce
Tracker 2: udp://exodus.desync.com:6969/announce
Tracker 3: udp://tracker.cyberia.is:6969/announce
Tracker 4: udp://tracker.opentrackr.org:1337/announce
Tracker 5: udp://tracker.torrent.eu.org:451/announce
Tracker 6: udp://explodie.org:6969/announce
Tracker 7: udp://tracker.birkenwald.de:6969/announce
Tracker 8: udp://tracker.moeking.me:6969/announce
Tracker 9: udp://ipv4.tracker.harry.lu:80/announce
Tracker 10: udp://thouvenin.cloud:6969/announce
Tracker 11: udp://6.pocketnet.app:6969/announce
Tracker 12: udp://aarsen.me:6969/announce
Tracker 13: http://nyaa.tracker.wf:7777/announce
Tracker 14: udp://open.stealth.si:80/announce
Tracker 15: http://tracker.anirena.com:80/announce
Actions: