The Treatment aka El Tratamiento (Short) 2019 SPANISH ENSUBBED 1080p WEBRip x264 AAC MTHRFCKR +0

Torrent info
Uploader: mthrfckr
Language: Spanish (Spain) Spanish (Spain)
Category:
♫ - Video
Labels:
Group: Individual
Download: Torrent Magnet XDCC
Actions: Report
Scrape info
Date: 2023-01-19 03:22:41 UTC
File size: 206 MB
Seeders: 1
Leechers: 0
Completed: 9
Transferred: 1.8 GB
Info Hash: 393b4052a8f970ac7cf4436eff132311a45b7259
Torrent Info: [AniDex Torrent #519086] My torrents: https://cloudtorrents.com/users/mthrfckr?ordering=-uploaded https://btsow.beauty/search/MTHRFCKR https://anidex.info/user/20448 https://www.torrentkitty.tv/search/MTHRFCKR/ https://0magnet.com/search?q=MTHRFCKR https://solidtorrents.to/search?q=MTHRFCKR&sort=date&order=desc https://bitsearch.to/search?q=MTHRFCKR&sort=date&order=desc

Description

General
Complete name : The.Treatment.[El.Tratamiento].(Short).2019.SPANISH.ENSUBBED.1080p.WEBRip.x264.AAC-MTHRFCKR.mp4
Format : MPEG-4
Format profile : Base Media / Version 2
Codec ID : mp42 (mp42/mp41/isom/avc1)
File size : 206 MiB
Duration : 8 min 57 s
Overall bit rate mode : Variable
Overall bit rate : 3 220 kb/s
Encoded date : UTC 2019-10-21 18:46:57
Tagged date : UTC 2019-10-21 18:46:57

Video
ID : 1
Format : AVC
Format/Info : Advanced Video Codec
Format profile : High@L4
Format settings : CABAC / 5 Ref Frames
Format settings, CABAC : Yes
Format settings, Reference : 5 frames
Codec ID : avc1
Codec ID/Info : Advanced Video Coding
Duration : 8 min 57 s
Bit rate : 2 962 kb/s
Width : 1 920 pixels
Height : 1 080 pixels
Display aspect ratio : 16:9
Frame rate mode : Constant
Frame rate : 25.000 FPS
Color space : YUV
Chroma subsampling : 4:2:0
Bit depth : 8 bits
Scan type : Progressive
Bits/(Pixel*Frame) : 0.057
Stream size : 190 MiB (92%)
Writing library : x264 core 157 r10 d4099dd
Encoded date : UTC 2019-10-21 18:46:57
Tagged date : UTC 2019-10-21 18:46:57
Color range : Limited
Color primaries : BT.709
Transfer characteristics : BT.709
Matrix coefficients : BT.709
Codec configuration box : avcC

Audio
ID : 2
Format : AAC LC
Format/Info : Advanced Audio Codec Low Complexity
Codec ID : mp4a-40-2
Duration : 8 min 57 s
Bit rate mode : Variable
Bit rate : 253 kb/s
Channel(s) : 2 channels
Channel layout : L R
Sampling rate : 48.0 kHz
Frame rate : 46.875 FPS (1024 SPF)
Compression mode : Lossy
Stream size : 16.2 MiB (8%)
Encoded date : UTC 2019-10-21 18:46:57
Tagged date : UTC 2019-10-21 18:46:57

Comments

Default User Logo 2rrff433 2023-02-28 17:50:37 UTC
长期有一楼一凤,草榴邀请码,1024小草邀请码,寻花论坛,唐人阁,犬马之家,小红楼,一品楼,凤江湖,老哥稳,51风流,ik明星,大圈360,52qm,快活林,凤楼阁,葬花阁,魔性论坛,龙凤楼,AVCAR,客官慢走,百花丛,百花楼,老司机社区,群香楼,杏吧,村花论坛,良家阁,丝丝阁,爱北京,第一会所,夜逍遥,私房俱乐部,炫美社,聚花楼,街拍大师VIP,好卖家,天天伴游,SVIP(未全列,上方没有的论坛也可能有),出租共享VIP会员帐号和邀请码,可以登录账号试用,发账号密码直接登录,长久稳定。尽在网站复制浏览器打开:2020234.xyz
The.Treatment.[El.Tratamiento].(Short).2019.SPANISH.ENSUBBED.1080p.WEBRip.x264.AAC-MTHRFCKR.mp4 (206 MB)
Tracker details
Tracker 1: http://anidex.moe:6969/announce
Tracker 2: udp://open.stealth.si:80/announce
Tracker 3: udp://tracker.opentrackr.org:1337/announce
Tracker 4: udp://exodus.desync.com:6969/announce
Tracker 5: udp://exodus.desync.com:6969
Tracker 6: udp://tracker.torrent.eu.org:451/announce
Tracker 7: udp://www.torrent.eu.org:451/announce
Tracker 8: udp://tracker.internetwarriors.net:1337/announce
Tracker 9: http://p4p.arenabg.com:1337/announce
Tracker 10: udp://tracker.openbittorrent.com:6969/announce
Tracker 11: udp://opentor.org:2710/announce
Tracker 12: udp://retracker.lanta-net.ru:2710/announce
Tracker 13: http://tracker.bt4g.com:2095/announce
Tracker 14: udp://tracker.bitsearch.to:1337/announce
Tracker 15: udp://9.rarbg.com:2810/announce
Tracker 16: udp://9.rarbg.me:2740/announce
Actions: