Joyland 2022 ENSUBBED 1080p WEB x264 AAC MTHRFCKR +0

Torrent info
Uploader: mthrfckr
Language: English English
Category:
♫ - Video
Labels:
Group: Individual
Download: Torrent Magnet XDCC
Actions: Report
Scrape info
Date: 2023-01-16 22:10:49 UTC
File size: 4.6 GB
Seeders: 1
Leechers: 0
Completed: 40
Transferred: 185 GB
Info Hash: 4f914df6e8fda8dc6c41863e885491c025c3bc9d
Torrent Info: [AniDex Torrent #518727] My torrents: https://anidex.info/user/20448 https://www.torrentkitty.tv/search/MTHRFCKR/ https://btsow.beauty/search/MTHRFCKR https://0magnet.com/search?q=MTHRFCKR https://cloudtorrents.com/users/mthrfckr?ordering=-uploaded https://solidtorrents.to/search?q=MTHRFCKR&sort=date&order=desc https://bitsearch.to/search?q=MTHRFCKR&sort=date&order=desc

Description

General
Unique ID : 246625057483499932660123359526180287584 (0xB98A42218BBF22E4E0886A6CB8F2F460)
Complete name : Joyland.2022.ENSUBBED.1080p.WEB.x264.AAC-MTHRFCKR.mkv
Format : Matroska
Format version : Version 4
File size : 4.63 GiB
Duration : 2 h 6 min
Overall bit rate : 5 229 kb/s
Encoded date : UTC 2023-01-16 21:44:32
Writing application : mkvmerge v73.0.0 ('25 or 6 to 4') 64-bit
Writing library : libebml v1.4.4 + libmatroska v1.7.1

Video
ID : 1
Format : AVC
Format/Info : Advanced Video Codec
Format profile : High@L4.1
Format settings : CABAC / 4 Ref Frames
Format settings, CABAC : Yes
Format settings, Reference : 4 frames
Codec ID : V_MPEG4/ISO/AVC
Duration : 2 h 6 min
Bit rate : 5 098 kb/s
Width : 1 920 pixels
Height : 1 080 pixels
Display aspect ratio : 16:9
Frame rate mode : Constant
Frame rate : 24.000 FPS
Color space : YUV
Chroma subsampling : 4:2:0
Bit depth : 8 bits
Scan type : Progressive
Bits/(Pixel*Frame) : 0.102
Stream size : 4.52 GiB (98%)
Writing library : x264 core 163 r3060M 5db6aa6
Language : Panjabi
Default : Yes
Forced : No
Color range : Limited
Color primaries : BT.709
Transfer characteristics : BT.709
Matrix coefficients : BT.709

Audio
ID : 2
Format : AAC LC
Format/Info : Advanced Audio Codec Low Complexity
Codec ID : A_AAC-2
Duration : 2 h 6 min
Bit rate : 128 kb/s
Channel(s) : 2 channels
Channel layout : L R
Sampling rate : 48.0 kHz
Frame rate : 46.875 FPS (1024 SPF)
Compression mode : Lossy
Stream size : 116 MiB (2%)
Language : Panjabi
Default : Yes
Forced : No

Comments

Default User Logo 2rrff433 2023-02-28 17:56:37 UTC
长期有一楼一凤,草榴邀请码,1024小草邀请码,寻花论坛,唐人阁,犬马之家,小红楼,一品楼,凤江湖,老哥稳,51风流,ik明星,大圈360,52qm,快活林,凤楼阁,葬花阁,魔性论坛,龙凤楼,AVCAR,客官慢走,百花丛,百花楼,老司机社区,群香楼,杏吧,村花论坛,良家阁,丝丝阁,爱北京,第一会所,夜逍遥,私房俱乐部,炫美社,聚花楼,街拍大师VIP,好卖家,天天伴游,SVIP(未全列,上方没有的论坛也可能有),出租共享VIP会员帐号和邀请码,可以登录账号试用,发账号密码直接登录,长久稳定。尽在网站复制浏览器打开:2020234.xyz
Joyland.2022.ENSUBBED.1080p.WEB.x264.AAC-MTHRFCKR.mkv (4.6 GB)
Tracker details
Tracker 1: http://anidex.moe:6969/announce
Tracker 2: udp://open.stealth.si:80/announce
Tracker 3: udp://tracker.opentrackr.org:1337/announce
Tracker 4: udp://exodus.desync.com:6969/announce
Tracker 5: udp://exodus.desync.com:6969
Tracker 6: udp://tracker.torrent.eu.org:451/announce
Tracker 7: udp://www.torrent.eu.org:451/announce
Tracker 8: udp://tracker.internetwarriors.net:1337/announce
Tracker 9: http://p4p.arenabg.com:1337/announce
Tracker 10: udp://tracker.openbittorrent.com:6969/announce
Tracker 11: udp://opentor.org:2710/announce
Tracker 12: udp://retracker.lanta-net.ru:2710/announce
Tracker 13: http://tracker.bt4g.com:2095/announce
Tracker 14: udp://tracker.bitsearch.to:1337/announce
Tracker 15: udp://9.rarbg.com:2810/announce
Tracker 16: udp://9.rarbg.me:2740/announce
Actions: