[neoHEVC] Anima Yell! [Season 1] [BD 1080p x265 HEVC AAC] +1

Torrent info
Uploader: neoborn
Language: English English
Category:
Anime - Sub
Labels: B
Group: [neoHEVC]
Links:
Download: Torrent Magnet XDCC
Actions: Report
Scrape info
Date: 2022-11-24 20:52:42 UTC
File size: 2.5 GB
Seeders: 8
Leechers: 2
Completed: 191
Transferred: 469 GB
Info Hash: bd4cb0901cc4bb54fc2a468f696f54d04d47090f
Torrent Info: [AniDex Torrent #509461]

Description


Come hang out in Discord

Anima Yell! [Season 1]

Trailer


Notes:
. Resampled script
. Restyled script and changed fonts
. Created OPED
. Created chapters


Synopsis
Kohane Hatoya’s most lovable trait is also her greatest flaw. She loves to help others no matter how far she has to go in order to get the job done. Her biggest inspiration to do so comes to light when she sees what cheerleading looks like for the first time in middle school. Now a highschooler but as enthusiastic as ever, Kohane wants nothing more than to start her very own cheerleading squad. She's encouraged by her best friend, Uki Sawatari, who often has to help her get out of trouble.

There is just one problem: Kohane does not have any experience in cheerleading. She has absolutely no idea what to do, what to wear, or how to perform. To make matters worse, she has been scared of heights since childhood, and this new sport is full of stunts pulled far from the ground for a girl her size. Enter Hizume Arima, a former cheerleader who wishes to leave her pastime behind. Unfortunately for her, Kohane recognizes Hizume, and will stop at nothing just so she can lead the new squad, even if it means facing her childhood fear.




Source
Video and JPN Audio (JPN BDMV): [LoliHouse]
Subtitles: [HorribleSubs]
Subtitles Info: [HorribleSubs] Base [Me] Edits, see notes

Thank you all for making this possible <3


Media Info
General
Unique ID : 304904799558890532003399248449947106703 (0xE5628742FAE93152373E90F858E4FD8F)
Complete name : Anima Yell! - S01E01.mkv
Format : Matroska
Format version : Version 4
File size : 246 MiB
Duration : 23 min 41 s
Overall bit rate : 1 450 kb/s
Movie name : Anima Yell! - S01E01
Encoded date : UTC 2022-11-24 20:09:50
Writing application : mkvmerge v72.0.0 ('Minuano (Six-eight)') 64-bit
Writing library : libebml v1.4.4 + libmatroska v1.7.1 / Lavf58.76.100
Attachments : Cutewritten-Regular.ttf / CRONOSPRO-BOLD.OTF / CRONOSPRO-BOLDIT.OTF / OpenSans-Semibold.ttf

Video
ID : 1
Format : HEVC
Format/Info : High Efficiency Video Coding
Format profile : Main 10@L4@High
Codec ID : V_MPEGH/ISO/HEVC
Duration : 23 min 41 s
Bit rate : 1 322 kb/s
Width : 1 920 pixels
Height : 1 080 pixels
Display aspect ratio : 16:9
Frame rate mode : Constant
Frame rate : 23.976 (24000/1001) FPS
Color space : YUV
Chroma subsampling : 4:2:0
Bit depth : 10 bits
Bits/(Pixel*Frame) : 0.027
Stream size : 224 MiB (91%)
Writing library : x265 3.5+1-f0c1022b6:[Windows][GCC 9.2.0][64 bit] 10bit
Encoding settings : cpuid=1111039 / frame-threads=2 / numa-pools=4 / wpp / no-pmode / no-pme / no-psnr / no-ssim / log-level=2 / input-csp=1 / input-res=1920x1080 / interlace=0 / total-frames=0 / level-idc=40 / high-tier=1 / uhd-bd=0 / ref=5 / no-allow-non-conformance / no-repeat-headers / annexb / no-aud / no-hrd / info / hash=0 / no-temporal-layers / open-gop / min-keyint=24 / keyint=240 / gop-lookahead=0 / bframes=16 / b-adapt=2 / b-pyramid / bframe-bias=0 / rc-lookahead=120 / lookahead-slices=4 / scenecut=40 / hist-scenecut=0 / radl=0 / no-splice / no-intra-refresh / ctu=64 / min-cu-size=8 / rect / no-amp / max-tu-size=32 / tu-inter-depth=1 / tu-intra-depth=1 / limit-tu=0 / rdoq-level=1 / dynamic-rd=0.00 / no-ssim-rd / signhide / no-tskip / nr-intra=0 / nr-inter=0 / no-constrained-intra / no-strong-intra-smoothing / max-merge=3 / limit-refs=3 / limit-modes / me=3 / subme=3 / merange=57 / temporal-mvp / no-frame-dup / no-hme / weightp / no-weightb / no-analyze-src-pics / deblock=-1:-1 / no-sao / no-sao-non-deblock / rd=4 / selective-sao=0 / no-early-skip / rskip / no-fast-intra / no-tskip-fast / no-cu-lossless / no-b-intra / no-splitrd-skip / rdpenalty=0 / psy-rd=2.00 / psy-rdoq=2.00 / no-rd-refine / no-lossless / cbqpoffs=0 / crqpoffs=0 / rc=crf / crf=22.5 / qcomp=0.60 / qpstep=4 / stats-write=0 / stats-read=0 / vbv-maxrate=30000 / vbv-bufsize=30000 / vbv-init=0.9 / min-vbv-fullness=50.0 / max-vbv-fullness=80.0 / crf-max=0.0 / crf-min=0.0 / ipratio=1.40 / pbratio=1.30 / aq-mode=3 / aq-strength=0.80 / cutree / zone-count=0 / no-strict-cbr / qg-size=32 / no-rc-grain / qpmax=69 / qpmin=0 / no-const-vbv / sar=1 / overscan=0 / videoformat=5 / range=0 / colorprim=1 / transfer=1 / colormatrix=1 / chromaloc=0 / display-window=0 / cll=0,0 / min-luma=0 / max-luma=1023 / log2-max-poc-lsb=8 / vui-timing-info / vui-hrd-info / slices=1 / no-opt-qp-pps / no-opt-ref-list-length-pps / no-multi-pass-opt-rps / scenecut-bias=0.05 / hist-threshold=0.03 / no-opt-cu-delta-qp / no-aq-motion / no-hdr10 / no-hdr10-opt / no-dhdr10-opt / no-idr-recovery-sei / analysis-reuse-level=0 / analysis-save-reuse-level=0 / analysis-load-reuse-level=0 / scale-factor=0 / refine-intra=0 / refine-inter=0 / refine-mv=1 / refine-ctu-distortion=0 / no-limit-sao / ctu-info=0 / no-lowpass-dct / refine-analysis-type=0 / copy-pic=1 / max-ausize-factor=1.0 / no-dynamic-refine / no-single-sei / no-hevc-aq / no-svt / no-field / qp-adaptation-range=1.00 / scenecut-aware-qp=0conformance-window-offsets / right=0 / bottom=0 / decoder-max-rate=0 / no-vbv-live-multi-pass
Default : Yes
Forced : No
Color range : Limited
Color primaries : BT.709
Transfer characteristics : BT.709
Matrix coefficients : BT.709

Audio
ID : 2
Format : AAC LC
Format/Info : Advanced Audio Codec Low Complexity
Codec ID : A_AAC-2
Duration : 23 min 41 s
Bit rate : 119 kb/s
Channel(s) : 2 channels
Channel layout : L R
Sampling rate : 48.0 kHz
Frame rate : 46.875 FPS (1024 SPF)
Compression mode : Lossy
Stream size : 20.2 MiB (8%)
Title : Japanese
Language : Japanese
Default : Yes
Forced : No

Text
ID : 3
Format : ASS
Codec ID : S_TEXT/ASS
Codec ID/Info : Advanced Sub Station Alpha
Duration : 23 min 26 s
Bit rate : 2 362 b/s
Frame rate : 2.130 FPS
Count of elements : 2996
Compression mode : Lossless
Stream size : 406 KiB (0%)
Title : Dialogue
Language : English
Default : Yes
Forced : No

Menu
00:00:00.000 : :Intro
00:01:52.010 : :Episode
00:21:55.960 : :ED
00:23:25.930 : :Preview

Comments

  • [neoHEVC] Anima Yell! [Season 1] [BD 1080p x265 HEVC AAC]
    • Anima Yell! - S01E01.mkv (246 MB)
    • Anima Yell! - S01E02.mkv (210 MB)
    • Anima Yell! - S01E03.mkv (172 MB)
    • Anima Yell! - S01E04.mkv (203 MB)
    • Anima Yell! - S01E05.mkv (185 MB)
    • Anima Yell! - S01E06.mkv (219 MB)
    • Anima Yell! - S01E07.mkv (200 MB)
    • Anima Yell! - S01E08.mkv (207 MB)
    • Anima Yell! - S01E09.mkv (215 MB)
    • Anima Yell! - S01E10.mkv (244 MB)
    • Anima Yell! - S01E11.mkv (206 MB)
    • Anima Yell! - S01E12.mkv (209 MB)
Tracker details
Tracker 1: http://anidex.moe:6969/announce
Tracker 2: udp://tracker.opentrackr.org:1337/announce
Tracker 3: http://nyaa.tracker.wf:7777/announce
Tracker 4: udp://tracker.openbittorrent.com:80/announce
Actions: