[neoHEVC] Himouto! Umaru-chan R [Season 2] [BD 1080p x265 HEVC AAC] [Dual Audio] +1

Torrent info
Uploader: neoborn
Language: English English
Category:
Anime - Dub
Labels: B
Group: [neoHEVC]
Links:
Download: Torrent Magnet XDCC
Actions: Report
Scrape info
Date: 2022-11-24 15:29:43 UTC
File size: 3.1 GB
Seeders: 10
Leechers: 4
Completed: 233
Transferred: 730 GB
Info Hash: d7afd6b640776963567553656c88fbc074864f1d
Torrent Info: [AniDex Torrent #509432]

Description


Come hang out in Discord

Himouto! Umaru-chan R [Season 2]

Trailer


Synopsis
Umaru Doma is a model student who has a hidden side: when she gets home each day, she puts on her hamster hoodie and turns into a sluggish otaku fond of junk food. As Umaru continues these daily antics, the friendship between her and her classmates—Nana Ebina, Kirie Motoba, and Sylphinford Tachibana—deepens, and more and more interesting events begin to unfold.

Of course, these events give rise to numerous questions. What did Nana ask of Umaru's brother Taihei? Who is the mysterious girl with the diamond hairpin? And most important of all: why does this girl seem to know Umaru? These questions and more will be answered in Himouto! Umaru-chan R!




Language Options
I included two simple scripts that you can apply to these files to do the following (Windows only):

1. Make [Single Audio] Japanese: Throws out English audio and Signs&Songs subtitles tracks
2. Make [Single Audio] English: Throws out Japanese audio and Dialogue subtitles tracks

To apply these put all the video files into the Language Options folder and run the .bat file.
Don't combine them and only use them once together with the base files.


Source
Video and JPN Audio (JPN BDMV): [土間 うまる]
ENG Audio (WEB): [Yameii]
Subtitles: [YURI]
Subtitles Info: [Nii-sama Astral]

Thank you all for making this possible <3


Media Info
General
Unique ID : 144703779500151727772789902777277300424 (0x6CDCEF27C429C14749E18779E7A53EC8)
Complete name : Himouto! Umaru-chan - S02E01.mkv
Format : Matroska
Format version : Version 4
File size : 376 MiB
Duration : 23 min 41 s
Overall bit rate : 2 219 kb/s
Movie name : Himouto! Umaru-chan - S02E01
Encoded date : UTC 2022-11-24 12:32:50
Writing application : mkvmerge v72.0.0 ('Minuano (Six-eight)') 64-bit
Writing library : libebml v1.4.4 + libmatroska v1.7.1
Attachments : AnjaEliane.ttf / BDCARTOONSHOUT.TTF / bip.ttf / Courgette-Regular.ttf / fansubBlock.ttf / GandhiSans-Bold.otf / Happy_Hell.ttf / HoboStd.otf / KFhimaji.otf / Panton-ExtraBold.otf / BILLBH.TTF / BILLBH_.TTF / bip.ttf / BRLNSB.TTF / BROADW.TTF / CatCafe.ttf / Chalk Dash.ttf / ChalkDust.ttf / CHILLER.TTF / CM Big Fat Paintbrush.ttf / CP Font_0.ttf / D16GroupSansBold.ttf / deathrattlebb_reg.ttf / DFBrushRD-W7-WING-RKSJ-H.ttf / DFBrushRD-W7-WINP-RKSJ-H.ttf / DFBrushRD-W7-WIN-RKSJ-H.ttf / DFGBrushRD-W7_0.ttc / EASPORTS15.ttf / ElegantLux-Mager.OTF / ElegantLux-Mager.ttf / Even Stevens.ttf / FGKlara.ttf / GlamourGirl.ttf / graviolasoft_medium.ttf / GraviolaSoft-Medium.otf / HoboStd.otf / hobostd.ttf / ITCKRIST.TTF / IwaRGoPro-Db-Toaru.ttf / LATINWD.TTF / loveness.ttf / OCR-b___.ttf / Ozone.ttf / Painfresco-Regular.ttf / Pencil(sRB).TTF / Perisphere.ttf / rounded-x-mplus-2c-heavy.ttf / second breakfast.ttf / secondbreakfast.ttf / segoescb.ttf / SweetLove.ttf / Trading Post Bold.ttf / tt0007m_.ttf / tt0247m_.ttf / tt0292m_.ttf / tt0586m_.ttf / tt0628m_.ttf / ZODIASTI.TTF / AnjaEliane.ttf / AutourOne-Regular.ttf / badankadonk.ttf / Bemio.otf / bemio.ttf

Video
ID : 1
Format : HEVC
Format/Info : High Efficiency Video Coding
Format profile : Main 10@L4@High
Codec ID : V_MPEGH/ISO/HEVC
Duration : 23 min 41 s
Bit rate : 1 654 kb/s
Width : 1 920 pixels
Height : 1 080 pixels
Display aspect ratio : 16:9
Frame rate mode : Constant
Frame rate : 23.976 (24000/1001) FPS
Color space : YUV
Chroma subsampling : 4:2:0
Bit depth : 10 bits
Bits/(Pixel*Frame) : 0.033
Stream size : 280 MiB (75%)
Writing library : x265 3.5+1-f0c1022b6:[Windows][GCC 9.2.0][64 bit] 10bit
Encoding settings : cpuid=1111039 / frame-threads=2 / numa-pools=4 / wpp / no-pmode / no-pme / no-psnr / no-ssim / log-level=2 / input-csp=1 / input-res=1920x1080 / interlace=0 / total-frames=0 / level-idc=40 / high-tier=1 / uhd-bd=0 / ref=5 / no-allow-non-conformance / no-repeat-headers / annexb / no-aud / no-hrd / info / hash=0 / no-temporal-layers / open-gop / min-keyint=24 / keyint=240 / gop-lookahead=0 / bframes=16 / b-adapt=2 / b-pyramid / bframe-bias=0 / rc-lookahead=120 / lookahead-slices=4 / scenecut=40 / hist-scenecut=0 / radl=0 / no-splice / no-intra-refresh / ctu=64 / min-cu-size=8 / rect / no-amp / max-tu-size=32 / tu-inter-depth=1 / tu-intra-depth=1 / limit-tu=0 / rdoq-level=1 / dynamic-rd=0.00 / no-ssim-rd / signhide / no-tskip / nr-intra=0 / nr-inter=0 / no-constrained-intra / no-strong-intra-smoothing / max-merge=3 / limit-refs=3 / limit-modes / me=3 / subme=3 / merange=57 / temporal-mvp / no-frame-dup / no-hme / weightp / no-weightb / no-analyze-src-pics / deblock=-1:-1 / no-sao / no-sao-non-deblock / rd=4 / selective-sao=0 / no-early-skip / rskip / no-fast-intra / no-tskip-fast / no-cu-lossless / no-b-intra / no-splitrd-skip / rdpenalty=0 / psy-rd=1.50 / psy-rdoq=1.50 / no-rd-refine / no-lossless / cbqpoffs=0 / crqpoffs=0 / rc=crf / crf=22.5 / qcomp=0.60 / qpstep=4 / stats-write=0 / stats-read=0 / vbv-maxrate=30000 / vbv-bufsize=30000 / vbv-init=0.9 / min-vbv-fullness=50.0 / max-vbv-fullness=80.0 / crf-max=0.0 / crf-min=0.0 / ipratio=1.40 / pbratio=1.30 / aq-mode=3 / aq-strength=0.80 / cutree / zone-count=0 / no-strict-cbr / qg-size=32 / no-rc-grain / qpmax=69 / qpmin=0 / no-const-vbv / sar=1 / overscan=0 / videoformat=5 / range=0 / colorprim=1 / transfer=1 / colormatrix=1 / chromaloc=0 / display-window=0 / cll=0,0 / min-luma=0 / max-luma=1023 / log2-max-poc-lsb=8 / vui-timing-info / vui-hrd-info / slices=1 / no-opt-qp-pps / no-opt-ref-list-length-pps / no-multi-pass-opt-rps / scenecut-bias=0.05 / hist-threshold=0.03 / no-opt-cu-delta-qp / no-aq-motion / no-hdr10 / no-hdr10-opt / no-dhdr10-opt / no-idr-recovery-sei / analysis-reuse-level=0 / analysis-save-reuse-level=0 / analysis-load-reuse-level=0 / scale-factor=0 / refine-intra=0 / refine-inter=0 / refine-mv=1 / refine-ctu-distortion=0 / no-limit-sao / ctu-info=0 / no-lowpass-dct / refine-analysis-type=0 / copy-pic=1 / max-ausize-factor=1.0 / no-dynamic-refine / no-single-sei / no-hevc-aq / no-svt / no-field / qp-adaptation-range=1.00 / scenecut-aware-qp=0conformance-window-offsets / right=0 / bottom=0 / decoder-max-rate=0 / no-vbv-live-multi-pass
Default : Yes
Forced : No
Color range : Limited
Color primaries : BT.709
Transfer characteristics : BT.709
Matrix coefficients : BT.709

Audio #1
ID : 2
Format : AAC LC
Format/Info : Advanced Audio Codec Low Complexity
Codec ID : A_AAC-2
Duration : 23 min 40 s
Bit rate : 192 kb/s
Channel(s) : 2 channels
Channel layout : L R
Sampling rate : 48.0 kHz
Frame rate : 46.875 FPS (1024 SPF)
Compression mode : Lossy
Stream size : 33.1 MiB (9%)
Title : English
Language : English
Default : Yes
Forced : No

Audio #2
ID : 3
Format : AAC LC
Format/Info : Advanced Audio Codec Low Complexity
Codec ID : A_AAC-2
Duration : 23 min 41 s
Bit rate : 208 kb/s
Channel(s) : 2 channels
Channel layout : L R
Sampling rate : 48.0 kHz
Frame rate : 46.875 FPS (1024 SPF)
Compression mode : Lossy
Stream size : 35.2 MiB (9%)
Title : Japanese
Language : Japanese
Default : No
Forced : No

Text #1
ID : 4
Format : ASS
Codec ID : S_TEXT/ASS
Codec ID/Info : Advanced Sub Station Alpha
Duration : 23 min 40 s
Bit rate : 66 b/s
Frame rate : 0.113 FPS
Count of elements : 160
Compression mode : Lossless
Stream size : 11.5 KiB (0%)
Title : Signs & Songs
Language : English
Default : No
Forced : Yes

Text #2
ID : 5
Format : ASS
Codec ID : S_TEXT/ASS
Codec ID/Info : Advanced Sub Station Alpha
Duration : 23 min 40 s
Bit rate : 171 b/s
Frame rate : 0.333 FPS
Count of elements : 473
Compression mode : Lossless
Stream size : 29.8 KiB (0%)
Title : Dialogue
Language : English
Default : Yes
Forced : No

Menu
00:00:00.000 : en:Avant
00:00:13.013 : en:OP
00:01:43.020 : en:Part A
00:09:09.966 : en:Part B
00:21:55.898 : en:ED
00:23:25.863 : en:Next

Comments

  • [neoHEVC] Himouto! Umaru-chan R [Season 2] [BD 1080p x265 HEVC AAC] [Dual Audio]
    • Himouto! Umaru-chan - S02E01.mkv (376 MB)
    • Himouto! Umaru-chan - S02E02.mkv (269 MB)
    • Himouto! Umaru-chan - S02E03.mkv (248 MB)
    • Himouto! Umaru-chan - S02E04.mkv (262 MB)
    • Himouto! Umaru-chan - S02E05.mkv (249 MB)
    • Himouto! Umaru-chan - S02E06.mkv (277 MB)
    • Himouto! Umaru-chan - S02E07.mkv (263 MB)
    • Himouto! Umaru-chan - S02E08.mkv (251 MB)
    • Himouto! Umaru-chan - S02E09.mkv (230 MB)
    • Himouto! Umaru-chan - S02E10.mkv (266 MB)
    • Himouto! Umaru-chan - S02E11.mkv (246 MB)
    • Himouto! Umaru-chan - S02E12.mkv (262 MB)
    • Language Options
Tracker details
Tracker 1: http://anidex.moe:6969/announce
Tracker 2: udp://tracker.opentrackr.org:1337/announce
Tracker 3: http://nyaa.tracker.wf:7777/announce
Tracker 4: udp://tracker.openbittorrent.com:80/announce
Actions: