Teknoman Blade (Tekkaman Blade) English Dub (1992) Upscaled (Entire Series) +0

Torrent info
Uploader: Arano
Language: English English
Category:
Anime - Dub
Labels: B
Group: Individual
Download: Torrent Magnet XDCC
Actions: Report
Scrape info
Date: 2022-09-21 20:09:10 UTC
File size: 11.7 GB
Seeders: 1
Leechers: 1
Completed: 21
Transferred: 245 GB
Info Hash: b19dd21c38c5b6d259b73d09e8997c0afe07dff2
Torrent Info: [AniDex Torrent #495710] Teknoman Blade (Tekkaman Blade) English Dub (1992) Upscaled(Entire Series)

Description

Teknoman Blade (Tekkaman Blade) English Dub (1992) Upscaled (Entire Series)
Follows the main protagonist Blade who along with the rest of his family undergo a strange alteration allowing him to transform into an almost invincible armored Tekkaman by a technologically advanced race that alters any beings they encounter and then turns them into their slaves that undertake conquest. Blades Alteration is interrupted before he can be enslaved to the aliens so now he must use the abilities bestowed by the aliens to kill his family to protect the earth from a similar fate.

This is the English dubbed version of Tekkaman Blade. The english dub was cut differently so it cannot be combined with the Japanese dub as an alternate audio stream. It was a favorite of my childhood and introduced me to Anime, I really like the English dub which has many accents and great voice acting, unfortunately there were no decent quality versions.

I had two Editions of this on DVD an older one which had terrible video quality but better Audio Quality and a newer one which had better video quality but only mono Audio.
I up-scaled the video from the newer DVD using Topaz AI to 1440x1080 to retain the original 4:3 aspect ratio without letter-boxing or cropping the original.
I edited the Older DVD Audio to fit the newer DVD and made this the main track because it sounds better and relegated the audio from the newer DVD to a secondary audio stream. The details are as follows:

Complete name : 1x01 - Friend or Foe.mp4
Format : MPEG-4
Format profile : Base Media
Codec ID : isom (isom/dby1/iso2/avc1/mp41)
File size : 282 MiB
Duration : 19 min 49 s
Overall bit rate : 1 988 kb/s

Video
ID : 1
Format : AVC
Format/Info : Advanced Video Codec
Format profile : Main@L4
Format settings : CABAC / 4 Ref Frames
Format settings, CABAC : Yes
Format settings, ReFrames : 4 frames
Codec ID : avc1
Codec ID/Info : Advanced Video Coding
Duration : 19 min 49 s
Bit rate : 1 599 kb/s
Width : 1 440 pixels
Height : 1 080 pixels
Display aspect ratio : 4:3
Frame rate mode : Constant
Frame rate : 29.970 (30000/1001) FPS
Color space : YUV
Chroma subsampling : 4:2:0
Bit depth : 8 bits
Scan type : Progressive
Bits/(Pixel*Frame) : 0.034
Stream size : 227 MiB (80%)

Audio #1
ID : 2
Format : AC-3
Format/Info : Audio Coding 3
Codec ID : ac-3
Duration : 19 min 49 s
Bit rate mode : Constant
Bit rate : 192 kb/s
Channel(s) : 2 channels
Channel positions : Front: L R
Sampling rate : 48.0 kHz
Frame rate : 31.250 FPS (1536 SPF)
Bit depth : 16 bits
Compression mode : Lossy
Stream size : 27.2 MiB (10%)
Title : English Old DVD Audio (Better Quality)
Language : English


Audio #2
ID : 3
Format : AC-3
Format/Info : Audio Coding 3
Codec ID : ac-3
Duration : 19 min 42 s
Bit rate mode : Constant
Bit rate : 192 kb/s
Channel(s) : 2 channels
Channel positions : Front: L R
Sampling rate : 48.0 kHz
Frame rate : 31.250 FPS (1536 SPF)
Bit depth : 16 bits
Compression mode : Lossy
Stream size : 27.1 MiB (10%)
Title : English New DVD Audio (Worse Quality)
Language : English
Service kind : Complete Main
Default : No
Alternate group : 1

File List
Season 1
1x01 - Friend or Foe.mp4
1x02 Invasion.mp4
1x03 - Power of the Space Knights.mp4
1x04 - Falling Star.mp4
1x05 - Times Up.mp4
1x06 - Shattered Crystal.mp4
1x07 - Teknobot.mp4
1x08 - Snapshot.mp4
1x09 - Convoy.mp4
1x10 - Bold Soldier Boy.mp4
1x11 - Brother Beware.mp4
1x12 - Sibling Rivalry.mp4
1x13 - Family Feud.mp4
1x14 - Saber Strike.mp4
1x15 - Spy Game.mp4
1x16 - Sword and Steel.mp4
1x17 - The Visitor.mp4
1x18 - Battleground.mp4
1x19 - Resurrection.mp4
1x20 - Mind Game.mp4
1x21 - Decision.mp4
1x22 - Reunion.mp4
1x23 - In The Beginning.mp4
1x24 - Shara's Secret.mp4
1x25 - Forget Me Not.mp4

Season 2
2x01 - Chronicle.mp4
2x02 - Red Saviour.mp4
2x03 - Running on Empty.mp4
2x04 - Tekno Trap.mp4
2x05 - Lady in Waiting.mp4
2x06 - Reformation.mp4
2x07 - Axe Trap.mp4
2x08 - Axe Attack.mp4
2x09 - On Ice.mp4
2x10 - Fifty-Fifty.mp4
2x11 - Evolution.mp4
2x12 - Reflection.mp4
2x13 - Amnesia.mp4
2x14 - Metamorphosis.mp4
2x15 - Sword Strike.mp4
2x16 - Battle of the Space Ring.mp4
2x17 - Beginning of the End.mp4
2x18 - Final Battle.mp4

Comments

  • Teknoman Blade (Tekkaman Blade) English Dub (1992) Upscaled (Entire Series)
    • Season 1
    • Season 2
Tracker details
Tracker 1: http://anidex.moe:6969/announce
Actions: