[neoHEVC] Arifureta - From Commonplace to World's Strongest [Season 2] [BD 1080p x265 HEVC AAC] [Dual Audio] Arifureta Shokugyou de Sekai Saikyou +1

Torrent info
Uploader: neoborn
Language: English English
Category:
Anime - Dub
Labels: B
Group: [neoHEVC]
Links:
Download: Torrent Magnet XDCC
Actions: Report
Scrape info
Date: 2022-08-05 18:14:06 UTC
File size: 4.6 GB
Seeders: 41
Leechers: 4
Completed: 313
Transferred: 1.4 TB
Info Hash: 429c3a955db6356625d11fbd06a1b886583ade3a
Torrent Info: [AniDex Torrent #485433]

Description


Come hang out in Discord

Arifureta: From Commonplace to World's Strongest [Season2]

Notes:
. Resampled script
. Restyled script
. Added styled OPED
. Created chapters


Trailer


Synopsis
Transported to another world and left behind by his former friends, Hajime had to make his rise from literal rock bottom. It was in the labyrinth where he strengthened his weak magic and found several beautiful allies. Now after saving his classmates, he ventures for Erisen to escort Myuu and her mother. He'll fight and defeat anyone he has to in order to find a way home—including a god!




Language Options
I included two simple scripts that you can apply to these files to do the following (Windows only):

1. Make [Single Audio] Japanese: Throws out English audio and Signs&Songs subtitles tracks
2. Make [Single Audio] English: Throws out Japanese audio and Dialogue subtitles tracks

To apply these put all the video files into the Language Options folder and run the .bat file.
Don't combine them and only use them once together with the base files.


Source
Video and JPN Audio (BDMV): [Pawelk81]
ENG Audio (WEB): [Yameii]
Subtitles: [Mad le Zisell]
Subtitles Info: [Mad le Zisell] Base [Me] Edits see notes

Thank you all for making this possible <3


Media Info
General
Unique ID : 90645678814357665575680572126301187896 (0x4431B903E6E1608F7FDA94853472EF38)
Complete name : Arifureta - From Commonplace to World's Strongest - S02E01.mkv
Format : Matroska
Format version : Version 4
File size : 383 MiB
Duration : 23 min 42 s
Overall bit rate : 2 260 kb/s
Movie name : Arifureta - From Commonplace to World's Strongest - S02E01
Encoded date : UTC 2022-07-10 14:22:56
Writing application : mkvmerge v57.0.0 ('Till The End') 64-bit
Writing library : libebml v1.4.2 + libmatroska v1.6.4 / Lavf58.47.100
Attachments : Grand Royal.otf / MADE Tommy Soft Regular PERSONAL USE.otf / myriadpro-bold.otf / alice-regular.ttf

Video
ID : 1
Format : HEVC
Format/Info : High Efficiency Video Coding
Format profile : Main 10@L4@High
Codec ID : V_MPEGH/ISO/HEVC
Duration : 23 min 42 s
Bit rate : 1 819 kb/s
Width : 1 920 pixels
Height : 1 080 pixels
Display aspect ratio : 16:9
Frame rate mode : Variable
Frame rate : 23.976 FPS
Color space : YUV
Chroma subsampling : 4:2:0
Bit depth : 10 bits
Bits/(Pixel*Frame) : 0.037
Stream size : 308 MiB (80%)
Writing library : x265 3.5+1-f0c1022b6:[Windows][GCC 9.2.0][64 bit] 10bit
Encoding settings : cpuid=1111039 / frame-threads=2 / numa-pools=4 / wpp / no-pmode / no-pme / no-psnr / no-ssim / log-level=2 / input-csp=1 / input-res=1920x1080 / interlace=0 / total-frames=0 / level-idc=40 / high-tier=1 / uhd-bd=0 / ref=5 / no-allow-non-conformance / no-repeat-headers / annexb / no-aud / no-hrd / info / hash=0 / no-temporal-layers / open-gop / min-keyint=24 / keyint=240 / gop-lookahead=0 / bframes=16 / b-adapt=2 / b-pyramid / bframe-bias=0 / rc-lookahead=120 / lookahead-slices=4 / scenecut=40 / hist-scenecut=0 / radl=0 / no-splice / no-intra-refresh / ctu=64 / min-cu-size=8 / rect / no-amp / max-tu-size=32 / tu-inter-depth=1 / tu-intra-depth=1 / limit-tu=0 / rdoq-level=1 / dynamic-rd=0.00 / no-ssim-rd / signhide / no-tskip / nr-intra=0 / nr-inter=0 / no-constrained-intra / no-strong-intra-smoothing / max-merge=3 / limit-refs=3 / limit-modes / me=3 / subme=3 / merange=57 / temporal-mvp / no-frame-dup / no-hme / weightp / no-weightb / no-analyze-src-pics / deblock=-1:-1 / no-sao / no-sao-non-deblock / rd=4 / selective-sao=0 / no-early-skip / rskip / no-fast-intra / no-tskip-fast / no-cu-lossless / no-b-intra / no-splitrd-skip / rdpenalty=0 / psy-rd=1.50 / psy-rdoq=1.50 / no-rd-refine / no-lossless / cbqpoffs=0 / crqpoffs=0 / rc=crf / crf=22.0 / qcomp=0.60 / qpstep=4 / stats-write=0 / stats-read=0 / vbv-maxrate=30000 / vbv-bufsize=30000 / vbv-init=0.9 / min-vbv-fullness=50.0 / max-vbv-fullness=80.0 / crf-max=0.0 / crf-min=0.0 / ipratio=1.40 / pbratio=1.30 / aq-mode=3 / aq-strength=0.80 / cutree / zone-count=0 / no-strict-cbr / qg-size=32 / no-rc-grain / qpmax=69 / qpmin=0 / no-const-vbv / sar=1 / overscan=0 / videoformat=5 / range=0 / colorprim=1 / transfer=1 / colormatrix=1 / chromaloc=0 / display-window=0 / cll=0,0 / min-luma=0 / max-luma=1023 / log2-max-poc-lsb=8 / vui-timing-info / vui-hrd-info / slices=1 / no-opt-qp-pps / no-opt-ref-list-length-pps / no-multi-pass-opt-rps / scenecut-bias=0.05 / hist-threshold=0.03 / no-opt-cu-delta-qp / no-aq-motion / no-hdr10 / no-hdr10-opt / no-dhdr10-opt / no-idr-recovery-sei / analysis-reuse-level=0 / analysis-save-reuse-level=0 / analysis-load-reuse-level=0 / scale-factor=0 / refine-intra=0 / refine-inter=0 / refine-mv=1 / refine-ctu-distortion=0 / no-limit-sao / ctu-info=0 / no-lowpass-dct / refine-analysis-type=0 / copy-pic=1 / max-ausize-factor=1.0 / no-dynamic-refine / no-single-sei / no-hevc-aq / no-svt / no-field / qp-adaptation-range=1.00 / scenecut-aware-qp=0conformance-window-offsets / right=0 / bottom=0 / decoder-max-rate=0 / no-vbv-live-multi-pass
Default : Yes
Forced : No
Color range : Limited
Color primaries : BT.709
Transfer characteristics : BT.709
Matrix coefficients : BT.709

Audio #1
ID : 2
Format : AAC LC
Format/Info : Advanced Audio Codec Low Complexity
Codec ID : A_AAC-2
Duration : 23 min 41 s
Bit rate : 181 kb/s
Channel(s) : 2 channels
Channel layout : L R
Sampling rate : 48.0 kHz
Frame rate : 46.875 FPS (1024 SPF)
Compression mode : Lossy
Stream size : 30.6 MiB (8%)
Title : English
Writing library : Lavc58.93.100 aac
Language : English
Default : Yes
Forced : No

Audio #2
ID : 3
Format : AAC LC
Format/Info : Advanced Audio Codec Low Complexity
Codec ID : A_AAC-2
Duration : 23 min 42 s
Bit rate : 243 kb/s
Channel(s) : 2 channels
Channel layout : L R
Sampling rate : 48.0 kHz
Frame rate : 46.875 FPS (1024 SPF)
Compression mode : Lossy
Delay relative to video : 28 ms
Stream size : 41.1 MiB (11%)
Title : Japanese
Language : Japanese
Default : No
Forced : No

Text #1
ID : 4
Format : ASS
Codec ID : S_TEXT/ASS
Codec ID/Info : Advanced Sub Station Alpha
Duration : 22 min 15 s
Bit rate : 5 042 b/s
Count of elements : 5110
Compression mode : Lossless
Stream size : 822 KiB (0%)
Title : Signs & Songs
Writing library : Lavc58.93.100 ssa
Language : English
Default : No
Forced : Yes

Text #2
ID : 5
Format : ASS
Codec ID : S_TEXT/ASS
Codec ID/Info : Advanced Sub Station Alpha
Duration : 23 min 1 s
Bit rate : 4 982 b/s
Count of elements : 5405
Compression mode : Lossless
Stream size : 840 KiB (0%)
Title : Dialogue
Writing library : Lavc58.93.100 ssa
Language : English
Default : Yes
Forced : No

Menu
00:00:00.000 : :Intro
00:00:58.000 : :OP
00:02:28.000 : :Part 1
00:10:25.020 : :Part 2
00:22:04.010 : :ED
00:23:34.020 : :Preview

Comments

  • [neoHEVC] Arifureta - From Commonplace to World's Strongest [Season 2] [BD 1080p x265 HEVC AAC] [Dual Audio] Arifureta Shokugyou de Sekai Saikyou
    • Arifureta - From Commonplace to World's Strongest - S02E01.mkv (383 MB)
    • Arifureta - From Commonplace to World's Strongest - S02E02.mkv (439 MB)
    • Arifureta - From Commonplace to World's Strongest - S02E03.mkv (441 MB)
    • Arifureta - From Commonplace to World's Strongest - S02E04.mkv (390 MB)
    • Arifureta - From Commonplace to World's Strongest - S02E05.mkv (409 MB)
    • Arifureta - From Commonplace to World's Strongest - S02E06.mkv (339 MB)
    • Arifureta - From Commonplace to World's Strongest - S02E07.mkv (349 MB)
    • Arifureta - From Commonplace to World's Strongest - S02E08.mkv (399 MB)
    • Arifureta - From Commonplace to World's Strongest - S02E09.mkv (484 MB)
    • Arifureta - From Commonplace to World's Strongest - S02E10.mkv (385 MB)
    • Arifureta - From Commonplace to World's Strongest - S02E11.mkv (357 MB)
    • Arifureta - From Commonplace to World's Strongest - S02E12.mkv (282 MB)
    • Language Options
Tracker details
Tracker 1: http://anidex.moe:6969/announce
Tracker 2: udp://tracker.opentrackr.org:1337/announce
Tracker 3: http://nyaa.tracker.wf:7777/announce
Tracker 4: udp://tracker.openbittorrent.com:80/announce
Actions: