Sneakerella aka Os Tênis Encantados 2022 1080p WEBRip x265 DUAL MTHRFCKR +0

Torrent info
Uploader: mthrfckr
Language: English English
Category:
♫ - Video
Labels:
Group: Individual
Download: Torrent Magnet XDCC
Actions: Report
Scrape info
Date: 2022-05-13 19:12:38 UTC
File size: 1.9 GB
Seeders: 1
Leechers: 2
Completed: 2
Transferred: 3.8 GB
Info Hash: 62108fa215375d4c1c04e5d89b2a1668bfedf5be
Torrent Info: [AniDex Torrent #471598] My torrents: https://anidex.info/user/20448 https://0magnet.com/search?q=MTHRFCKR https://btsow.bar/search/MTHRFCKR https://www.torrentkitty.tv/search/MTHRFCKR/

Description

General
Unique ID : 298015250010071268360653937723803546427 (0xE033A63E4822704FA841C5EECFA9B33B)
Complete name : Sneakerella.[Os.Tênis.Encantados].2022.1080p.WEBRip.x265.DUAL-MTHRFCKR.mkv
Format : Matroska
Format version : Version 4
File size : 1.92 GiB
Duration : 1 h 50 min
Overall bit rate : 2 483 kb/s
Encoded date : UTC 2022-05-13 19:03:49
Writing application : mkvmerge v67.0.0 ('Under Stars') 64-bit
Writing library : libebml v1.4.2 + libmatroska v1.6.4

Video
ID : 1
Format : HEVC
Format/Info : High Efficiency Video Coding
Format profile : Main 10@L4@Main
Codec ID : V_MPEGH/ISO/HEVC
Duration : 1 h 50 min
Bit rate : 2 001 kb/s
Width : 1 920 pixels
Height : 960 pixels
Display aspect ratio : 2.000
Frame rate mode : Constant
Frame rate : 23.976 (24000/1001) FPS
Color space : YUV
Chroma subsampling : 4:2:0
Bit depth : 10 bits
Bits/(Pixel*Frame) : 0.045
Stream size : 1.55 GiB (81%)
Default : Yes
Forced : No

Audio #1
ID : 2
Format : E-AC-3
Format/Info : Enhanced AC-3
Commercial name : Dolby Digital Plus
Codec ID : A_EAC3
Duration : 1 h 50 min
Bit rate mode : Constant
Bit rate : 256 kb/s
Channel(s) : 6 channels
Channel layout : L R C LFE Ls Rs
Sampling rate : 48.0 kHz
Frame rate : 31.250 FPS (1536 SPF)
Compression mode : Lossy
Delay relative to video : -35 ms
Stream size : 203 MiB (10%)
Title : Portguês Brasileiro
Language : Portuguese
Service kind : Complete Main
Default : Yes
Forced : Yes

Audio #2
ID : 3
Format : AAC LC
Format/Info : Advanced Audio Codec Low Complexity
Codec ID : A_AAC-2
Duration : 1 h 50 min
Bit rate : 224 kb/s
Channel(s) : 6 channels
Channel layout : C L R Ls Rs LFE
Sampling rate : 48.0 kHz
Frame rate : 46.875 FPS (1024 SPF)
Compression mode : Lossy
Delay relative to video : -43 ms
Stream size : 178 MiB (9%)
Title : English
Language : English
Default : No
Forced : No

Comments

Sneakerella.[Os.TĂȘnis.Encantados].2022.1080p.WEBRip.x265.DUAL-MTHRFCKR.mkv (1.9 GB)
Tracker details
Tracker 1: http://anidex.moe:6969/announce
Tracker 2: udp://tracker.opentrackr.org:1337/announce
Tracker 3: udp://exodus.desync.com:6969/announce
Tracker 4: udp://open.stealth.si:80/announce
Tracker 5: udp://tracker.torrent.eu.org:451/announce
Tracker 6: udp://tracker.internetwarriors.net:1337/announce
Tracker 7: http://p4p.arenabg.com:1337/announce
Tracker 8: udp://tracker.openbittorrent.com:6969/announce
Tracker 9: udp://opentor.org:2710/announce
Tracker 10: udp://retracker.lanta-net.ru:2710/announce
Tracker 11: http://tracker.bt4g.com:2095/announce
Tracker 12: udp://tracker.bitsearch.to:1337/announce
Tracker 13: udp://9.rarbg.com:2810/announce
Tracker 14: udp://9.rarbg.me:2740/announce
Actions: