[ADF] Love Live! Nijigasaki Gakuen School Idol Doukoukai - Vol 01 (BD 1920x1080 x264 10bit FLAC) +0

Torrent info
Uploader: PogonzaRod
Language: Japanese Japanese
Category:
Anime - Raw
Labels:
Group: Anime Dream Fansub
Links:
Download: Torrent Magnet XDCC
Actions: Report
Scrape info
Date: 2022-03-12 16:49:15 UTC
File size: 3.9 GB
Seeders: 1
Leechers: 1
Completed: 49
Transferred: 193 GB
Info Hash: c87b016556a0ba8f729bd5daad1c8806cdbb1874
Torrent Info: [AniDex Torrent #463007] ¡Visita Anime Dream Fansub en Facebook, @AnimeDreamSubs en Twitter, @animedreamsubs en Instagram y https://www.animedreamsubs.moe para conocer más!

Description

Vamos apurando los Blu-ray de la primera temporada antes de que salga la segunda xd

Este torrent no tiene subtítulos en español, solo el .pgs oficial en inglés

Esta descarga contiene:
- El episodio 01
- 4 PVs
- Una promoción del Blu-ray
- El ending sin créditos
- La serie de yonkoma Nijiyon, con los episodios 01 al 12
- Un especial con las seiyuus titulado Susume! Nijigaku!

Capturas / Screenshots:





General
Unique ID : 281974775381921706512975277699121756653 (0xD4225DC8EA9862A5131BDB366BC339ED)
Complete name : \[ADF] Love Live! Nijigasaki Gakuen School Idol Doukoukai - Vol 01 (BD 1920x1080 x264 10bit FLAC)\[ADF] Love Live! Nijigasaki Gakuen School Idol Doukoukai - 01 (BD 1920x1080 x264 10bit FLAC).mkv
Format : Matroska
Format version : Version 2
File size : 937 MiB
Duration : 23 min 42 s
Overall bit rate mode : Variable
Overall bit rate : 5 526 kb/s
Encoded date : UTC 2022-03-11 15:22:59
Writing application : mkvmerge v42.0.0 ('Overtime') 64-bit
Writing library : libebml v1.3.10 + libmatroska v1.5.2

Video
ID : 1
Format : AVC
Format/Info : Advanced Video Codec
Format profile : High 10@L5
Format settings : CABAC / 5 Ref Frames
Format settings, CABAC : Yes
Format settings, Reference fra : 5 frames
Codec ID : V_MPEG4/ISO/AVC
Duration : 23 min 42 s
Bit rate : 4 061 kb/s
Width : 1 920 pixels
Height : 1 080 pixels
Display aspect ratio : 16:9
Frame rate mode : Constant
Frame rate : 23.976 (24000/1001) FPS
Color space : YUV
Chroma subsampling : 4:2:0
Bit depth : 10 bits
Scan type : Progressive
Bits/(Pixel*Frame) : 0.082
Stream size : 688 MiB (73%)
Writing library : x264 core 157 r2969 d4099dd
Encoding settings : cabac=1 / ref=5 / deblock=1:1:1 / analyse=0x3:0x133 / me=umh / subme=10 / psy=1 / psy_rd=0.40:0.00 / mixed_ref=1 / me_range=32 / chroma_me=1 / trellis=2 / 8x8dct=1 / cqm=0 / deadzone=21,11 / fast_pskip=1 / chroma_qp_offset=-2 / threads=12 / lookahead_threads=3 / sliced_threads=0 / nr=0 / decimate=1 / interlaced=0 / bluray_compat=0 / constrained_intra=0 / bframes=10 / b_pyramid=2 / b_adapt=2 / b_bias=0 / direct=3 / weightb=1 / open_gop=0 / weightp=2 / keyint=240 / keyint_min=23 / scenecut=40 / intra_refresh=0 / rc_lookahead=60 / rc=crf / mbtree=1 / crf=15.0 / qcomp=0.60 / qpmin=0 / qpmax=81 / qpstep=4 / ip_ratio=1.40 / aq=1:0.60
Default : Yes
Forced : No

Audio
ID : 2
Format : FLAC
Format/Info : Free Lossless Audio Codec
Codec ID : A_FLAC
Duration : 23 min 41 s
Bit rate mode : Variable
Bit rate : 1 463 kb/s
Channel(s) : 2 channels
Channel layout : L R
Sampling rate : 48.0 kHz
Frame rate : 11.719 FPS (4096 SPF)
Bit depth : 24 bits
Compression mode : Lossless
Stream size : 248 MiB (26%)
Writing library : libFLAC 1.3.2 (UTC 2017-01-01)
Default : Yes
Forced : No


Join in to our chats in Discord and Telegram

Follow us on the social networks in Facebook, Twitter and Instagram

Únete a nuestros chats en Discord y Telegram

Síguenos en nuestras redes sociales en Facebook, Twitter e Instagram

Comments

  • [ADF] Love Live! Nijigasaki Gakuen School Idol Doukoukai - Vol 01 (BD 1920x1080 x264 10bit FLAC)
    • [ADF] Love Live! Nijigasaki Gakuen School Idol Doukoukai - 01 (BD 1920x1080 x264 10bit FLAC).mkv (937 MB)
    • [ADF] Love Live! Nijigasaki Gakuen School Idol Doukoukai - 01 (BD 1920x1080 x264 10bit FLAC).sup (6.1 MB)
    • [ADF] Love Live! Nijigasaki Gakuen School Idol Doukoukai - BD Promo (BD 1920x1080 x264 10bit FLAC).mkv (23.8 MB)
    • [ADF] Love Live! Nijigasaki Gakuen School Idol Doukoukai - Ending (BD 1920x1080 x264 10bit FLAC).mkv (37.1 MB)
    • [ADF] Love Live! Nijigasaki Gakuen School Idol Doukoukai - Menu 01 (BD 1920x1080 x264 10bit FLAC).mkv (994 KB)
    • [ADF] Love Live! Nijigasaki Gakuen School Idol Doukoukai - Menu 02 (BD 1920x1080 x264 10bit FLAC).mkv (998 KB)
    • [ADF] Love Live! Nijigasaki Gakuen School Idol Doukoukai - Nijiyon 01 al 12 (BD 1920x1080 x264 10bit FLAC).mkv (147 MB)
    • [ADF] Love Live! Nijigasaki Gakuen School Idol Doukoukai - PV 01 (BD 1920x1080 x264 10bit FLAC).mkv (53.1 MB)
    • [ADF] Love Live! Nijigasaki Gakuen School Idol Doukoukai - PV 02 (BD 1920x1080 x264 10bit FLAC).mkv (73.5 MB)
    • [ADF] Love Live! Nijigasaki Gakuen School Idol Doukoukai - PV 03 (BD 1920x1080 x264 10bit FLAC).mkv (18.9 MB)
    • [ADF] Love Live! Nijigasaki Gakuen School Idol Doukoukai - PV 04 (BD 1920x1080 x264 10bit FLAC).mkv (10.9 MB)
    • [ADF] Love Live! Nijigasaki Gakuen School Idol Doukoukai - Susume! Nijigaku! (BD 1920x1080 x264 10bit FLAC).mkv (2.7 GB)
Tracker details
Tracker 1: http://anidex.moe:6969/announce
Tracker 2: http://nyaa.tracker.wf:7777/announce
Tracker 3: http://t.nyaatracker.com/announce
Tracker 4: udp://tracker.coppersurfer.tk:6969/announce
Tracker 5: udp://tracker.opentrackr.org:1337/announce
Tracker 6: udp://tracker.uw0.xyz:6969/announce
Tracker 7: udp://tracker.leechers-paradise.org:6969/announce
Tracker 8: udp://open.stealth.si:80/announce
Tracker 9: udp://tracker.torrent.eu.org:451
Actions: