[ShouryuuReppa] Shingeki no Kyojin (The Final Season) 78 1080p [HEVC][x265][10bit][AAC] +0

Torrent info
Uploader: ShouryuuReppa
Language: English English
Category:
Anime - Sub
Labels: R
Group: Individual
Download: Torrent Magnet XDCC
Actions: Report
Scrape info
Date: 2022-01-28 02:18:25 UTC
File size: 863 MB
Seeders: 0
Leechers: 0
Completed: 235
Transferred: 198 GB
Info Hash: aebca60b5233ecf077ab1f599b9d6c157887df99
Torrent Info: [AniDex Torrent #457436]

Description

Source:

SubsPlease

Encoding Settings:

ffmpeg -hide_banner -v verbose -i “[SubsPlease] Shingeki no Kyojin (The Final Season) - 78 (1080p) [5AFF5292].mkv” -map 0 -c:v libx265 -preset slow -crf 19 -x265-params ref=4:bframes=8:rc-lookahead=40:lookahead-slices=0:constrained-intra=1:rdoq-level=1:deblock=1,1:psy-rd=1.50:psy-rdoq=2.00:aq-mode=3:range=limited:colorprim=bt709:transfer=bt709:colormatrix=bt709:limit-sao=1 -pix_fmt yuv420p10le -c:a aac -b:a 128k “[ShouryuuReppa] Shingeki no Kyojin (The Final Season) 78 1080p [HEVC][x265][10bit][AAC].mkv”

frame=34406 fps=1.8 q=21.6 Lsize= 855430kB time=00:23:54.89 bitrate=4883.8kbits/s speed=0.0744x
video:855162kB audio:0kB subtitle:0kB other streams:0kB global headers:2kB muxing overhead: 0.031392%
x265 [info]: frame I: 439, Avg QP:14.37 kb/s: 29223.66
x265 [info]: frame P: 8606, Avg QP:16.24 kb/s: 12391.05
x265 [info]: frame B: 25361, Avg QP:22.33 kb/s: 1911.23
x265 [info]: Weighted P-Frames: Y:4.3% UV:2.4%
x265 [info]: consecutive B-frames: 17.9% 7.8% 7.0% 39.6% 8.8% 13.1% 2.7% 2.4% 0.8%

encoded 34406 frames in 19281.22s (1.78 fps), 4881.05 kb/s, Avg QP:20.70

Media Info:

General
Unique ID : 278990074256723429493436698272810966947 (0xD1E388A869D329E1C9FE151B91A09FA3)
Complete name : /home/mrclay/Downloads/[ShouryuuReppa] Shingeki no Kyojin (The Final Season Part 2) 1080p [HEVC][x265][10bit][AAC]/[ShouryuuReppa] Shingeki no Kyojin (The Final Season) 78 1080p [HEVC][x265][10bit][AAC].mkv
Format : Matroska
Format version : Version 4
File size : 863 MiB
Duration : 24 min 2 s
Overall bit rate : 5 018 kb/s
Movie name : Shingeki no Kyojin (The Final Season) 78
Encoded date : UTC 2022-01-28 01:53:17
Writing application : mkvmerge v45.0.0 (‘Heaven in Pennies’) 64-bit
Writing library : libebml v1.3.10 + libmatroska v1.5.2 / Lavf58.76.100
Attachments : Roboto-Medium.ttf / Roboto-MediumItalic.ttf / arial.ttf / arialbd.ttf / comic.ttf / comicbd.ttf / times.ttf / timesbd.ttf / trebuc.ttf / trebucbd.ttf / verdana.ttf / verdanab.ttf

Video
ID : 1
Format : HEVC
Format/Info : High Efficiency Video Coding
Format profile : Main 10@L4@Main
Codec ID : V_MPEGH/ISO/HEVC
Duration : 23 min 55 s
Bit rate : 4 882 kb/s
Width : 1 920 pixels
Height : 1 080 pixels
Display aspect ratio : 16:9
Frame rate mode : Constant
Frame rate : 23.976 (24000/1001) FPS
Color space : YUV
Chroma subsampling : 4:2:0
Bit depth : 10 bits
Bits/(Pixel*Frame) : 0.098
Stream size : 835 MiB (97%)
Writing library : x265 3.5+1-f0c1022b6:[Linux][GCC 9.3.0][64 bit] 10bit
Encoding settings : cpuid=1111039 / frame-threads=2 / wpp / no-pmode / no-pme / no-psnr / no-ssim / log-level=2 / input-csp=1 / input-res=1920x1080 / interlace=0 / total-frames=0 / level-idc=0 / high-tier=1 / uhd-bd=0 / ref=4 / no-allow-non-conformance / no-repeat-headers / annexb / no-aud / no-hrd / info / hash=0 / no-temporal-layers / open-gop / min-keyint=23 / keyint=250 / gop-lookahead=0 / bframes=8 / b-adapt=2 / b-pyramid / bframe-bias=0 / rc-lookahead=40 / lookahead-slices=0 / scenecut=40 / hist-scenecut=0 / radl=0 / no-splice / no-intra-refresh / ctu=64 / min-cu-size=8 / rect / no-amp / max-tu-size=32 / tu-inter-depth=1 / tu-intra-depth=1 / limit-tu=0 / rdoq-level=1 / dynamic-rd=0.00 / no-ssim-rd / signhide / no-tskip / nr-intra=0 / nr-inter=0 / constrained-intra / strong-intra-smoothing / max-merge=3 / limit-refs=3 / limit-modes / me=3 / subme=3 / merange=57 / temporal-mvp / no-frame-dup / no-hme / weightp / no-weightb / no-analyze-src-pics / deblock=1:1 / sao / no-sao-non-deblock / rd=4 / selective-sao=4 / no-early-skip / rskip / no-fast-intra / no-tskip-fast / no-cu-lossless / no-b-intra / no-splitrd-skip / rdpenalty=0 / psy-rd=1.50 / psy-rdoq=2.00 / no-rd-refine / no-lossless / cbqpoffs=0 / crqpoffs=0 / rc=crf / crf=19.0 / qcomp=0.60 / qpstep=4 / stats-write=0 / stats-read=0 / ipratio=1.40 / pbratio=1.30 / aq-mode=3 / aq-strength=1.00 / cutree / zone-count=0 / no-strict-cbr / qg-size=32 / no-rc-grain / qpmax=69 / qpmin=0 / no-const-vbv / sar=1 / overscan=0 / videoformat=5 / range=0 / colorprim=1 / transfer=1 / colormatrix=1 / chromaloc=0 / display-window=0 / cll=0,0 / min-luma=0 / max-luma=1023 / log2-max-poc-lsb=8 / vui-timing-info / vui-hrd-info / slices=1 / no-opt-qp-pps / no-opt-ref-list-length-pps / no-multi-pass-opt-rps / scenecut-bias=0.05 / hist-threshold=0.03 / no-opt-cu-delta-qp / no-aq-motion / no-hdr10 / no-hdr10-opt / no-dhdr10-opt / no-idr-recovery-sei / analysis-reuse-level=0 / analysis-save-reuse-level=0 / analysis-load-reuse-level=0 / scale-factor=0 / refine-intra=0 / refine-inter=0 / refine-mv=1 / refine-ctu-distortion=0 / limit-sao / ctu-info=0 / no-lowpass-dct / refine-analysis-type=0 / copy-pic=1 / max-ausize-factor=1.0 / no-dynamic-refine / no-single-sei / no-hevc-aq / no-svt / no-field / qp-adaptation-range=1.00 / scenecut-aware-qp=0conformance-window-offsets / right=0 / bottom=0 / decoder-max-rate=0 / no-vbv-live-multi-pass
Default : Yes
Forced : No
Color range : Limited
Color primaries : BT.709
Transfer characteristics : BT.709
Matrix coefficients : BT.709

Audio
ID : 2
Format : AAC LC
Format/Info : Advanced Audio Codec Low Complexity
Codec ID : A_AAC-2
Duration : 23 min 55 s
Bit rate : 128 kb/s
Channel(s) : 2 channels
Channel layout : L R
Sampling rate : 44.1 kHz
Frame rate : 43.066 FPS (1024 SPF)
Compression mode : Lossy
Stream size : 21.9 MiB (3%)
Title : ShouryuuReppa
Language : Japanese
Default : Yes
Forced : No

Text
ID : 3
Format : ASS
Codec ID : S_TEXT/ASS
Codec ID/Info : Advanced Sub Station Alpha
Duration : 22 min 32 s
Bit rate : 64 b/s
Count of elements : 185
Compression mode : Lossless
Stream size : 10.6 KiB (0%)
Title : English (SubsPlease)
Language : English
Default : Yes
Forced : No

Comments

[ShouryuuReppa] Shingeki no Kyojin (The Final Season) 78 1080p [HEVC][x265][10bit][AAC].mkv (863 MB)
Tracker details
Tracker 1: http://anidex.moe:6969/announce
Tracker 2: http://nyaa.tracker.wf:7777/announce
Tracker 3: udp://tracker.opentrackr.org:1337/announce
Tracker 4: udp://9.rarbg.com:2810/announce
Tracker 5: udp://tracker.openbittorrent.com:6969/announce
Tracker 6: udp://exodus.desync.com:6969/announce
Tracker 7: http://open.acgnxtracker.com:80/announce
Tracker 8: udp://9.rarbg.to:2820/announce
Tracker 9: udp://9.rarbg.me:2980/announce
Tracker 10: udp://www.torrent.eu.org:451/announce
Tracker 11: udp://tracker.torrent.eu.org:451/announce
Tracker 12: udp://tracker.tiny-vps.com:6969/announce
Tracker 13: udp://retracker.lanta-net.ru:2710/announce
Tracker 14: http://tracker.acgnx.se/announce
Tracker 15: udp://open.stealth.si:80/announce
Tracker 16: udp://tracker1.bt.moack.co.kr:80/announce
Tracker 17: udp://tracker.moeking.me:6969/announce
Tracker 18: udp://tracker.loadbt.com:6969/announce
Tracker 19: udp://tracker.leech.ie:1337/announce
Tracker 20: udp://tracker.dler.org:6969/announce
Tracker 21: udp://opentor.org:2710/announce
Actions: