[neoHEVC] 86 Eighty Six [Season 1 + Special] [BD 1080p x265 HEVC AAC] [Dual Audio] +1

Torrent info
Uploader: neoborn
Language: English English
Category:
Anime - Dub
Labels: B
Group: [neoHEVC]
Links:
Download: Torrent Magnet XDCC
Actions: Report
Scrape info
Date: 2021-11-24 17:50:46 UTC
File size: 3.4 GB
Seeders: 13
Leechers: 3
Completed: 237
Transferred: 815 GB
Info Hash: 79374591f08f0c0f82560348ab2359475b498353
Torrent Info: [AniDex Torrent #448507]

Description


Join Discord for Current Projects, Encode-Requests and Seed-Request in case of no available seeds.

86 Eighty Six [Season 1 + Special]
with Dual Audio (Jpn/Eng) and Eng Subs in BD 1080p HEVC

Encode of [Lupin the Nerd] (BDMV x264 AVC FLAC) to (x265 HEVC AAC) with added English audio tracks from [Golumpa] and English subtitles from [Kantai].

Side Node: Special is single-audio only

Trailer MyAnimeList - Season 1 MyAnimeList - Special


Synopsis
According to the Republic of San Magnolia, their ongoing war against the Giadian Empire has no casualties—however, that is mere propaganda. While the silver-haired Alba of the Republic's eighty-five sectors live safely behind protective walls, those of different appearances are interned in a secret eighty-sixth faction. Known within the military as the Eighty-Six, they are forced to fight against the Empire's autonomous Legion under the command of the Republican "Handlers."

Vladilena Milizé is assigned to the Spearhead squadron to replace their previous Handler. Shunned by her peers for being a fellow Eighty-Six supporter, she continues to fight against their inhumane discrimination. Shinei Nouzen is the captain of the Spearhead squadron. Infamous for being the sole survivor of every squadron he's been in, he insists on shouldering the names and wishes of his fallen comrades. When the fates of these young souls from two different worlds collide, will it ignite the spark that lights their path to salvation, or will they burn themselves in the flames of despair?




Language Options
I included three simple scripts that you can apply to these files to do the following (Windows only):

1. Change [Default Tracks]: Switches default tracks to *A:Japanese S:Dialog*
2. Make [Single Audio] Japanese: Throws out *English audio* and *Signs&Songs subtitles* tracks
3. Make [Single Audio] English: Throws out *Japanese audio* and *Dialogue subtitles* tracks

To apply these put all the video files into the Language Options folder and run the .bat file.


Comparison
Open links, toggle with mouseclick and check title.



Source
Video and JPN Audio: [Lupin the Nerd]
ENG Audio: [Golumpa]
Subtitles: [Kantai] [sam]
Subtitles Info: [Kantai] Season [sam] Special - Format ASS


Media Info
General
Unique ID : 94735242828527734016055594376809411320 (0x474558169FED64A59F997E8C9D3BF2F8)
Complete name : 86 Eighty Six - S01E01.mkv
Format : Matroska
Format version : Version 4
File size : 290 MiB
Duration : 23 min 41 s
Overall bit rate : 1 713 kb/s
Movie name : 86 Eighty Six - S01E01
Encoded date : UTC 2021-09-30 16:56:11
Writing application : mkvmerge v57.0.0 ('Till The End') 64-bit
Writing library : libebml v1.4.2 + libmatroska v1.6.4 / Lavf58.76.100
Attachments : Cabin-BoldItalic.ttf / CameronSans-Medium.ttf / DJBChalkItUp.ttf / gunplay rg.ttf / JMH Typewriter.ttf / Molecula-Semibold.ttf / Cabin-Bold.ttf

Video
ID : 1
Format : HEVC
Format/Info : High Efficiency Video Coding
Format profile : Main 10@L4.1@High
Codec ID : V_MPEGH/ISO/HEVC
Duration : 23 min 41 s
Bit rate : 1 448 kb/s
Width : 1 920 pixels
Height : 1 080 pixels
Display aspect ratio : 16:9
Frame rate mode : Constant
Frame rate : 23.976 (24000/1001) FPS
Color space : YUV
Chroma subsampling : 4:2:0
Bit depth : 10 bits
Bits/(Pixel*Frame) : 0.029
Stream size : 245 MiB (85%)
Writing library : x265 3.5+1-f0c1022b6:[Windows][GCC 9.2.0][64 bit] 10bit
Encoding settings : cpuid=1111039 / frame-threads=2 / numa-pools=4 / wpp / no-pmode / no-pme / no-psnr / no-ssim / log-level=2 / input-csp=1 / input-res=1920x1080 / interlace=0 / total-frames=0 / level-idc=41 / high-tier=1 / uhd-bd=0 / ref=5 / no-allow-non-conformance / no-repeat-headers / annexb / no-aud / no-hrd / info / hash=0 / no-temporal-layers / open-gop / min-keyint=24 / keyint=240 / gop-lookahead=0 / bframes=16 / b-adapt=2 / b-pyramid / bframe-bias=0 / rc-lookahead=120 / lookahead-slices=4 / scenecut=40 / hist-scenecut=0 / radl=0 / no-splice / no-intra-refresh / ctu=64 / min-cu-size=8 / rect / no-amp / max-tu-size=32 / tu-inter-depth=1 / tu-intra-depth=1 / limit-tu=0 / rdoq-level=2 / dynamic-rd=0.00 / no-ssim-rd / signhide / no-tskip / nr-intra=0 / nr-inter=0 / no-constrained-intra / strong-intra-smoothing / max-merge=3 / limit-refs=3 / limit-modes / me=3 / subme=3 / merange=57 / temporal-mvp / no-frame-dup / no-hme / weightp / no-weightb / no-analyze-src-pics / deblock=-1:-1 / no-sao / no-sao-non-deblock / rd=4 / selective-sao=0 / no-early-skip / rskip / no-fast-intra / no-tskip-fast / no-cu-lossless / no-b-intra / no-splitrd-skip / rdpenalty=0 / psy-rd=1.50 / psy-rdoq=1.00 / no-rd-refine / no-lossless / cbqpoffs=0 / crqpoffs=0 / rc=crf / crf=22.0 / qcomp=0.60 / qpstep=4 / stats-write=0 / stats-read=0 / vbv-maxrate=50000 / vbv-bufsize=50000 / vbv-init=0.9 / min-vbv-fullness=50.0 / max-vbv-fullness=80.0 / crf-max=0.0 / crf-min=0.0 / ipratio=1.40 / pbratio=1.30 / aq-mode=3 / aq-strength=0.80 / cutree / zone-count=0 / no-strict-cbr / qg-size=32 / no-rc-grain / qpmax=69 / qpmin=0 / no-const-vbv / sar=1 / overscan=0 / videoformat=5 / range=0 / colorprim=1 / transfer=1 / colormatrix=1 / chromaloc=0 / display-window=0 / cll=0,0 / min-luma=0 / max-luma=1023 / log2-max-poc-lsb=8 / vui-timing-info / vui-hrd-info / slices=1 / no-opt-qp-pps / no-opt-ref-list-length-pps / no-multi-pass-opt-rps / scenecut-bias=0.05 / hist-threshold=0.03 / no-opt-cu-delta-qp / no-aq-motion / no-hdr10 / no-hdr10-opt / no-dhdr10-opt / no-idr-recovery-sei / analysis-reuse-level=0 / analysis-save-reuse-level=0 / analysis-load-reuse-level=0 / scale-factor=0 / refine-intra=0 / refine-inter=0 / refine-mv=1 / refine-ctu-distortion=0 / no-limit-sao / ctu-info=0 / no-lowpass-dct / refine-analysis-type=0 / copy-pic=1 / max-ausize-factor=1.0 / no-dynamic-refine / no-single-sei / no-hevc-aq / no-svt / no-field / qp-adaptation-range=1.00 / scenecut-aware-qp=0conformance-window-offsets / right=0 / bottom=0 / decoder-max-rate=0 / no-vbv-live-multi-pass
Default : Yes
Forced : No
Color range : Limited
Color primaries : BT.709
Transfer characteristics : BT.709
Matrix coefficients : BT.709

Audio #1
ID : 2
Format : AAC LC
Format/Info : Advanced Audio Codec Low Complexity
Codec ID : A_AAC-2
Duration : 23 min 40 s
Bit rate : 128 kb/s
Channel(s) : 2 channels
Channel layout : L R
Sampling rate : 44.1 kHz
Frame rate : 43.066 FPS (1024 SPF)
Compression mode : Lossy
Stream size : 21.7 MiB (7%)
Title : Stereo - ENG (AAC)
Language : English
Default : Yes
Forced : No

Audio #2
ID : 3
Format : AAC LC
Format/Info : Advanced Audio Codec Low Complexity
Codec ID : A_AAC-2
Duration : 23 min 41 s
Bit rate : 122 kb/s
Channel(s) : 2 channels
Channel layout : L R
Sampling rate : 48.0 kHz
Frame rate : 46.875 FPS (1024 SPF)
Compression mode : Lossy
Stream size : 20.6 MiB (7%)
Title : Stereo - JPN (AAC)
Language : Japanese
Default : No
Forced : No

Text #1
ID : 4
Format : ASS
Codec ID : S_TEXT/ASS
Codec ID/Info : Advanced Sub Station Alpha
Duration : 21 min 38 s
Bit rate : 2 039 b/s
Count of elements : 2142
Compression mode : Lossless
Stream size : 323 KiB (0%)
Title : Signs & Songs - ENG (ASS)
Language : English
Default : Yes
Forced : No

Text #2
ID : 5
Format : ASS
Codec ID : S_TEXT/ASS
Codec ID/Info : Advanced Sub Station Alpha
Duration : 23 min 31 s
Bit rate : 1 977 b/s
Count of elements : 2445
Compression mode : Lossless
Stream size : 341 KiB (0%)
Title : Dialogue - ENG (ASS)
Language : English
Default : No
Forced : No

Menu
00:00:00.000 : :Prologue
00:01:07.985 : :Part A
00:13:12.625 : :Part B
00:22:04.990 : :Ending
00:23:34.997 : :Epilogue

Comments

  • [neoHEVC] 86 Eighty Six [Season 1 + Special] [BD 1080p x265 HEVC AAC] [Dual Audio]
    • Season 1
    • Language Options
    • Special
Tracker details
Tracker 1: http://anidex.moe:6969/announce
Tracker 2: udp://tracker.opentrackr.org:1337/announce
Tracker 3: http://nyaa.tracker.wf:7777/announce
Tracker 4: udp://tracker.openbittorrent.com:80/announce
Actions: