[TBK]ULTRAMAN TRIGGER: NEW GENERATION TIGA Ep. 6: "The One Hour Demon" -Official- +0

Torrent info
Uploader: BlazeKing
Language: English English
Category:
LA - Sub
Labels:
Group: Individual
Download: Torrent Magnet XDCC
Actions: Report
Scrape info
Date: 2021-09-10 23:16:21 UTC
File size: 524 MB
Seeders: 2
Leechers: 0
Completed: 121
Transferred: 61.9 GB
Info Hash: d85f6470f3c1abe5b45dfbee87fadb34f1392ff9
Torrent Info: [AniDex Torrent #435360] Back for another season!

Description

『ウルトラマントリガー NEW GENERATION TIGA』第7話「インター・ユニバース」-公式配信-

★STORY↓
The mysterious robot Satandelos only moves for one hour each day. None of Trigger’s attacks can get through its super strong barrier. After a series of defeats, Trigger and GUTS-Select search desperately for a way to take down the barrier, but they don’t even know where to begin… That is, until an unexpected figure appears before them!


Format : Matroska
Format version : Version 4 / Version 2
File size : 524 MiB
Duration : 29 min 59 s
Overall bit rate : 2 441 kb/s
Encoded date : UTC 2021-09-10 22:43:00
Writing application : mkvmerge v9.9.0 ('Pick Up') 64bit
Writing library : libebml v1.3.4 + libmatroska v1.4.5 / Lavf58.33.100


Video
ID : 2
Format : AVC
Format/Info : Advanced Video Codec
Format profile : High@L4
Format settings, CABAC : Yes
Format settings, RefFrames : 3 frames
Codec ID : V_MPEG4/ISO/AVC
Duration : 29 min 59 s
Bit rate : 2 311 kb/s
Width : 1 920 pixels
Height : 1 080 pixels
Display aspect ratio : 16:9
Frame rate mode : Constant
Frame rate : 23.976 (24000/1001) FPS
Color space : YUV
Chroma subsampling : 4:2:0
Bit depth : 8 bits
Scan type : Progressive
Bits/(Pixel*Frame) : 0.046
Stream size : 496 MiB (95%)
Writing library : x264 core 155 r2901 7d0ff22
Default : Yes
Forced : No
Color range : Limited
Color primaries : BT.709
Transfer characteristics : BT.709
Matrix coefficients : BT.709
HANDLER_NAME : ISO Media file produced by Google Inc.

Audio
ID : 3
Format : AAC
Format/Info : Advanced Audio Codec
Format profile : LC
Codec ID : A_AAC
Duration : 29 min 59 s
Bit rate : 128 kb/s
Channel(s) : 2 channels
Channel positions : Front: L R
Sampling rate : 44.1 kHz
Frame rate : 43.066 FPS (1024 SPF)
Compression mode : Lossy
Stream size : 27.5 MiB (5%)
Language : English
Default : Yes
Forced : No
HANDLER_NAME : ISO Media file produced by Google Inc.

Text
ID : 1
Format : ASS
Codec ID : S_TEXT/ASS
Codec ID/Info : Advanced Sub Station Alpha
Duration : 27 min 44 s
Bit rate : 60 b/s
Count of elements : 259
Compression mode : Lossless
Stream size : 12.2 KiB (0%)
Language : English
Default : Yes
Forced : No

Menu
00:00:00.000 : en:Cold Open
00:02:14.400 : en:Intro
00:03:54.500 : en:Commercial 1
00:05:40.500 : en:Act 1
00:11:01.700 : en:Commercial 2
00:12:46.800 : en:Act 2
00:18:46.800 : en:Commercial 3
00:20:12.900 : en:Act 3
00:28:03.000 : en:Outro
00:29:23.000 : en:Next Episode Preview

Comments

Default User Logo SweetCandy 2021-10-01 15:02:25 UTC
Want sex tonight? Write me here: https://ujeb.se/XgIcRe
[TBK]ULTRAMAN_TRIGGER-NEW_GENERATION_TIGA_Ep6_The_One_Hour_Demon-Official-.mkv (524 MB)
Tracker details
Tracker 1: http://anidex.moe:6969/announce
Tracker 2: udp://tracker.opentrackr.org:1337/announce
Tracker 3: udp://tracker.coppersurfer.tk:6969/announce
Tracker 4: udp://tracker.leechers-paradise.org:6969/announce
Tracker 5: http://nyaa.tracker.wf:7777/announce
Tracker 6: udp://open.stealth.si:80/announce
Tracker 7: http://share.camoe.cn:8080/announce
Actions: