[TBK]ULTRAMAN TRIGGER: NEW GENERATION TIGA Ep. 4: "For Smiles" -Official- +0

Torrent info
Uploader: BlazeKing
Language: English English
Category:
LA - Sub
Labels:
Group: Individual
Download: Torrent Magnet XDCC
Actions: Report
Scrape info
Date: 2021-07-31 03:41:15 UTC
File size: 543 MB
Seeders: 3
Leechers: 0
Completed: 208
Transferred: 110 GB
Info Hash: 497102259eff0e8d90367377ddf413c00ee5f8e2
Torrent Info: [AniDex Torrent #427825] Back for another season!

Description

『ウルトラマントリガー NEW GENERATION TIGA』第4話「笑顔のために」 -公式配信-

★STORY↓
A mysterious artifact is excavated from the Ultra-Ancient ruins. As GUTS-Select investigates, the treasure Ignis had been hunting awakens Oka-Gubila! With the town in danger, Kengo must transform into Trigger to make everyone smile!

Format : Matroska
Format version : Version 4 / Version 2
File size : 543 MiB
Duration : 30 min 39 s
Overall bit rate : 2 476 kb/s
Encoded date : UTC 2021-07-31 03:30:12
Writing application : mkvmerge v9.9.0 ('Pick Up') 64bit
Writing library : libebml v1.3.4 + libmatroska v1.4.5 / Lavf58.33.100


Video
ID : 2
Format : AVC
Format/Info : Advanced Video Codec
Format profile : High@L4
Format settings, CABAC : Yes
Format settings, RefFrames : 3 frames
Codec ID : V_MPEG4/ISO/AVC
Duration : 30 min 39 s
Bit rate : 2 346 kb/s
Width : 1 920 pixels
Height : 1 080 pixels
Display aspect ratio : 16:9
Frame rate mode : Constant
Frame rate : 23.976 (24000/1001) FPS
Color space : YUV
Chroma subsampling : 4:2:0
Bit depth : 8 bits
Scan type : Progressive
Bits/(Pixel*Frame) : 0.047
Stream size : 514 MiB (95%)
Writing library : x264 core 155 r2901 7d0ff22
Default : Yes
Forced : No
Color range : Limited
Color primaries : BT.709
Transfer characteristics : BT.709
Matrix coefficients : BT.709
HANDLER_NAME : ISO Media file produced by Google Inc.

Audio
ID : 3
Format : AAC
Format/Info : Advanced Audio Codec
Format profile : LC
Codec ID : A_AAC
Duration : 30 min 39 s
Bit rate : 128 kb/s
Channel(s) : 2 channels
Channel positions : Front: L R
Sampling rate : 44.1 kHz
Frame rate : 43.066 FPS (1024 SPF)
Compression mode : Lossy
Stream size : 28.1 MiB (5%)
Language : English
Default : Yes
Forced : No
HANDLER_NAME : ISO Media file produced by Google Inc.

Text
ID : 1
Format : ASS
Codec ID : S_TEXT/ASS
Codec ID/Info : Advanced Sub Station Alpha
Duration : 30 min 30 s
Bit rate : 52 b/s
Count of elements : 244
Compression mode : Lossless
Stream size : 11.8 KiB (0%)
Language : English
Default : Yes
Forced : No

Menu
00:00:00.000 : en:Cold Open
00:02:11.400 : en:Intro
00:03:51.600 : en:Commercial 1
00:05:44.600 : en:Act 1
00:11:08.600 : en:Commercial 2
00:13:00.100 : en:Act 2
00:20:21.800 : en:Commercial 3
00:22:15.000 : en:Act 3
00:28:42.800 : en:Outro
00:30:02.800 : en:Next Episode Preview

Comments

[TBK]ULTRAMAN_TRIGGER-NEW_GENERATION_TIGA_Ep4_For_Smiles-Official-.mkv (543 MB)
Tracker details
Tracker 1: http://anidex.moe:6969/announce
Tracker 2: udp://tracker.opentrackr.org:1337/announce
Tracker 3: udp://tracker.coppersurfer.tk:6969/announce
Tracker 4: udp://tracker.leechers-paradise.org:6969/announce
Tracker 5: http://nyaa.tracker.wf:7777/announce
Tracker 6: udp://open.stealth.si:80/announce
Tracker 7: http://share.camoe.cn:8080/announce
Actions: