Love Live! Nijigasaki High School Idol Club Shuffle Festival in School - Day 2 (WEBDL 1920x1080 x265 HEVC AAC).mkv +0

Torrent info
Uploader: PogonzaRod
Language: Spanish (LATAM) Spanish (LATAM)
Category:
LA - Raw
Labels:
Group: Anime Dream Fansub
Links:
Download: Torrent Magnet XDCC
Actions: Report
Scrape info
Date: 2021-03-21 17:37:11 UTC
File size: 1.5 GB
Seeders: 13
Leechers: 0
Completed: 1123
Transferred: 1.6 TB
Info Hash: 67565b8b59451267eae45ce9f2380ed2a1daddfa
Torrent Info: [AniDex Torrent #400252] ¡Visita Anime Dream Fansub en Facebook, @AnimeDreamSubs en Twitter, @animedreamsubs en Instagram y https://www.animedreamsubs.moe para conocer más!

Description



General
Unique ID : 197357574086546150215243348054269466229 (0x9479AFA8BCF8C92B4764C55AF43F9675)
Complete name :\Love Live! Nijigasaki High School Idol Club Shuffle Festival in School - Day 2 (WEBDL 1920x1080 x265 HEVC AAC).mkv
Format : Matroska
Format version : Version 4
File size : 1.47 GiB
Duration : 2 h 39 min
Overall bit rate : 1 322 kb/s
Encoded date : UTC 2021-03-21 17:17:06
Writing application : mkvmerge v55.0.0 ('Waiting For Space') 64-bit
Writing library : libebml v1.4.2 + libmatroska v1.6.4

Video
ID : 1
Format : HEVC
Format/Info : High Efficiency Video Coding
Format profile : Main@L4@Main
Codec ID : V_MPEGH/ISO/HEVC
Duration : 2 h 39 min
Bit rate : 1 124 kb/s
Width : 1 920 pixels
Height : 1 080 pixels
Display aspect ratio : 16:9
Frame rate mode : Constant
Frame rate : 30.000 FPS
Color space : YUV
Chroma subsampling : 4:2:0
Bit depth : 8 bits
Bits/(Pixel*Frame) : 0.018
Stream size : 1.25 GiB (85%)
Title : Video x265 HEVC 1080p
Language : Japanese
Default : Yes
Forced : No
Color range : Limited
Color primaries : BT.709
Transfer characteristics : BT.709
Matrix coefficients : BT.709

Audio
ID : 2
Format : AAC LC
Format/Info : Advanced Audio Codec Low Complexity
Codec ID : A_AAC-2
Duration : 2 h 39 min
Bit rate : 192 kb/s
Channel(s) : 2 channels
Channel layout : L R
Sampling rate : 48.0 kHz
Frame rate : 46.875 FPS (1024 SPF)
Compression mode : Lossy
Stream size : 223 MiB (15%)
Title : Audio AAC 2.0
Language : Japanese
Default : Yes
Forced : No

-----------------------------------------------------------------------------------------------

Video descargado desde Bilibili y luego muxeado con MKVToolnix
Fuente: https://www.bilibili.com/video/BV1764y1D7LQ

4800 yenes por un solo un día sigue siendo demasiado caro para el latino promedio u.u

Comments

Love Live! Nijigasaki High School Idol Club Shuffle Festival in School - Day 2 (WEBDL 1920x1080 x265 HEVC AAC).mkv (1.5 GB)
Tracker details
Tracker 1: http://anidex.moe:6969/announce
Tracker 2: http://nyaa.tracker.wf:7777/announce
Tracker 3: http://t.nyaatracker.com/announce
Tracker 4: udp://tracker.coppersurfer.tk:6969/announce
Tracker 5: udp://tracker.opentrackr.org:1337/announce
Tracker 6: udp://tracker.uw0.xyz:6969/announce
Tracker 7: udp://tracker.leechers-paradise.org:6969/announce
Tracker 8: udp://open.stealth.si:80/announce
Tracker 9: udp://tracker.torrent.eu.org:451
Actions: