Love Live! Nijigasaki High School Idol Club Shuffle Festival in School - Day 1 (WEBDL 1920x1080 x265 HEVC AAC).mkv +0

Torrent info
Uploader: PogonzaRod
Language: Japanese Japanese
Category:
LA - Raw
Labels:
Group: Anime Dream Fansub
Links:
Download: Torrent Magnet XDCC
Actions: Report
Scrape info
Date: 2021-03-21 00:03:54 UTC
File size: 1.4 GB
Seeders: 11
Leechers: 0
Completed: 2843
Transferred: 3.9 TB
Info Hash: 74b3a3ad82af672376744bcd04999bf1ef255c0b
Torrent Info: [AniDex Torrent #400029] ¡Visita Anime Dream Fansub en Facebook, @AnimeDreamSubs en Twitter, @animedreamsubs en Instagram y https://www.animedreamsubs.moe para conocer más!

Description



General
Unique ID : 196323242502482947010836443688402632815 (0x93B27B2CBE307123CA0E773BFFA3406F)
Complete name : \Love Live! Nijigasaki High School Idol Club Shuffle Festival in School - Day 1 (WEBDL 1920x1080 x265 HEVC AAC).mkv
Format : Matroska
Format version : Version 4
File size : 1.41 GiB
Duration : 2 h 18 min
Overall bit rate : 1 459 kb/s
Encoded date : UTC 2021-03-20 23:44:28
Writing application : mkvmerge v55.0.0 ('Waiting For Space') 64-bit
Writing library : libebml v1.4.2 + libmatroska v1.6.4

Video
ID : 1
Format : HEVC
Format/Info : High Efficiency Video Coding
Format profile : Main@L4@Main
Codec ID : V_MPEGH/ISO/HEVC
Duration : 2 h 18 min
Bit rate : 1 261 kb/s
Width : 1 920 pixels
Height : 1 080 pixels
Display aspect ratio : 16:9
Frame rate mode : Constant
Frame rate : 30.000 FPS
Color space : YUV
Chroma subsampling : 4:2:0
Bit depth : 8 bits
Bits/(Pixel*Frame) : 0.020
Stream size : 1.22 GiB (86%)
Title : Video x265 HEVC 1080p
Language : Japanese
Default : Yes
Forced : No
Color range : Limited
Color primaries : BT.709
Transfer characteristics : BT.709
Matrix coefficients : BT.709

Audio
ID : 2
Format : AAC LC
Format/Info : Advanced Audio Codec Low Complexity
Codec ID : A_AAC-2
Duration : 2 h 18 min
Bit rate : 192 kb/s
Channel(s) : 2 channels
Channel layout : L R
Sampling rate : 48.0 kHz
Frame rate : 46.875 FPS (1024 SPF)
Compression mode : Lossy
Stream size : 193 MiB (13%)
Title : Audio AAC 2.0
Language : Japanese
Default : Yes
Forced : No

-----------------------------------------------------------------------------------------------

Video descargado desde Bilibili y luego muxeado con MKVToolnix
Fuente: https://www.bilibili.com/video/BV1dv411b75Z

4800 yenes por un solo un día sigue siendo demasiado caro para el latino promedio u.u

Comments

Default User Logo SweetCandy 2021-10-02 06:37:17 UTC
Want sex tonight? Write me here: https://ujeb.se/XgIcRe
Love Live! Nijigasaki High School Idol Club Shuffle Festival in School - Day 1 (WEBDL 1920x1080 x265 HEVC AAC).mkv (1.4 GB)
Tracker details
Tracker 1: http://anidex.moe:6969/announce
Tracker 2: http://nyaa.tracker.wf:7777/announce
Tracker 3: http://t.nyaatracker.com/announce
Tracker 4: udp://tracker.coppersurfer.tk:6969/announce
Tracker 5: udp://tracker.opentrackr.org:1337/announce
Tracker 6: udp://tracker.uw0.xyz:6969/announce
Tracker 7: udp://tracker.leechers-paradise.org:6969/announce
Tracker 8: udp://open.stealth.si:80/announce
Tracker 9: udp://tracker.torrent.eu.org:451
Actions: