[Switch-Raws] Beastars Season 2 - 01 [1080p WEB NF x264 AAC].mp4 +0

Torrent info
Uploader: SwitchEncode
Language: Japanese Japanese
Category:
Anime - Raw
Labels:
Group: Switch Encode
Links:
Download: Torrent Magnet XDCC
Actions: Report
Scrape info
Date: 2021-01-14 02:08:38 UTC
File size: 326 MB
Seeders: 3
Leechers: 1
Completed: 63
Transferred: 20.1 GB
Info Hash: 292d04a0da04dc2353c70e9e973604fabc0e01eb
Torrent Info: [AniDex Torrent #383845]

Description

Anime name > Beastars
Season & Episode > Season 2 & Episode 1
Source > Netflix
Subs > None
Audio > Japanese

General
Complete name : [Switch-Raws] Beastars Season 2 - 01 [1080p WEB NF x264 AAC].mp4
Format : MPEG-4
Format profile : Base Media
Codec ID : isom (isom/iso2/avc1/mp41)
File size : 326 MiB
Duration : 22 min 52 s
Overall bit rate : 1 994 kb/s
Writing application : Lavf58.33.100

Video
ID : 1
Format : AVC
Format/Info : Advanced Video Codec
Format profile : High@L4
Format settings : CABAC / 4 Ref Frames
Format settings, CABAC : Yes
Format settings, Reference frames : 4 frames
Codec ID : avc1
Codec ID/Info : Advanced Video Coding
Duration : 22 min 51 s
Bit rate : 1 861 kb/s
Width : 1 920 pixels
Height : 1 080 pixels
Display aspect ratio : 16:9
Frame rate mode : Variable
Frame rate : 23.976 (23976/1000) FPS
Minimum frame rate : 23.974 FPS
Maximum frame rate : 90 000.000 FPS
Color space : YUV
Chroma subsampling : 4:2:0
Bit depth : 8 bits
Scan type : Progressive
Bits/(Pixel*Frame) : 0.037
Stream size : 304 MiB (93%)
Codec configuration box : avcC

Audio
ID : 2
Format : AAC LC SBR
Format/Info : Advanced Audio Codec Low Complexity with Spectral Band Replication
Commercial name : HE-AAC
Format settings : Explicit
Codec ID : mp4a-40-2
Duration : 22 min 52 s
Bit rate mode : Constant
Bit rate : 128 kb/s
Channel(s) : 2 channels
Channel layout : L R
Sampling rate : 48.0 kHz
Frame rate : 23.438 FPS (2048 SPF)
Compression mode : Lossy
Stream size : 20.9 MiB (6%)
Language : Japanese
Default : Yes
Alternate group : 1

Comments

[Switch-Raws] Beastars Season 2 - 01 [1080p WEB NF x264 AAC].mp4 (326 MB)
Tracker details
Tracker 1: http://anidex.moe:6969/announce
Tracker 2: http://nyaa.tracker.wf:7777/announce
Tracker 3: http://tracker.anirena.com:80/announce
Tracker 4: udp://open.stealth.si:80/announce
Tracker 5: udp://tracker.opentrackr.org:1337/announce
Tracker 6: udp://exodus.desync.com:6969/announce
Tracker 7: wss://tracker.openwebtorrent.com
Tracker 8: http://open.acgnxtracker.com:80/announce
Tracker 9: udp://tracker.coppersurfer.tk:6969/announce
Tracker 10: udp://9.rarbg.to:2820/announce
Tracker 11: udp://9.rarbg.me:2980/announce
Tracker 12: udp://tracker.cyberia.is:6969/announce
Tracker 13: udp://tracker3.itzmx.com:6961/announce
Tracker 14: udp://tracker.torrent.eu.org:451/announce
Tracker 15: udp://tracker.tiny-vps.com:6969/announce
Tracker 16: udp://retracker.lanta-net.ru:2710/announce
Actions: