[Nekomata] Muteki-kyuu*Believer + Mirai Harmony - Love Live! Nijigasaki High School Idol Club (BD 1920x1080 x264 FLAC) [PTBR] [V2] +0

Torrent info
Uploader: Gavuriiru
Language: Portuguese (Brazil) Portuguese (Brazil)
Category:
Anime - Sub
Labels:
Group: Nekomata
Links:
Download: Torrent Magnet XDCC
Actions: Report
Scrape info
Date: 2021-01-13 19:28:59 UTC
File size: 652 MB
Seeders: 2
Leechers: 2
Completed: 14
Transferred: 8.9 GB
Info Hash: 15ba778ff932b16a3d1e26af145558a5a4aafda1
Torrent Info: [AniDex Torrent #383797]

Description

Oioioioioi!



Primeiro lançamento depois do novo domínio, e é do Love Live! novo, hehe.



Duas músicas em um MV, Muteki-kyuu*Believer da Kasumin e Mirai Harmony de... Eu não sei, deve ser de todas as meninas de Nijigasaki.



Vamos nessa!

Nosso Discord: https://discord.nekomatasub.com/


Capas:

![uiui, delícia](https://1.bp.blogspot.com/-eFrQQqQ72AE/X-t-q7PJXQI/AAAAAAAAEyY/J2A0JKuV8UcB1K5BtJG7cMIAvbAec_oEgCLcBGAsYHQ/s16000/muteki.jpg "Capa")
![uiui, delícia](https://1.bp.blogspot.com/-yNZn0ftQvdU/X-t-q5lcAfI/AAAAAAAAEyc/PK0rO72MiYwa4aF-OenVS7Q8n5rhVNnzQCLcBGAsYHQ/s16000/mirai.png "Capa")
Miniaturas:
![ayay, delícia](https://1.bp.blogspot.com/-OhVkcGhVMmI/X-uEVHKFIgI/AAAAAAAAEy8/lounZJZQOIImHpxe6D4OFzGlnVnYlHvEQCLcBGAsYHQ/s16000/%255BNKMT%255D%2BMuteki%2BKyuu%2BBeliever%2B%252B%2BMirai%2BHarmony%2B%255BBD%2B1920x1080%2Bx264%2BHi10p%2BFLAC%255D%2B%255BPT-BR%255D%2B%255B93B66A23%255D.mkv_thumbs.png "Capa")

Anilist:
[Gavuriiru](https://anilist.co/user/Gavuriiru)
[LuckShiba](https://anilist.co/user/LuckShiba)

Mediainfo:
```Video
ID : 1
Format : AVC
Format/Info : Advanced Video Codec
Format profile : High 10@L5.1
Format settings : CABAC / 16 Ref Frames
Format settings, CABAC : Yes
Format settings, Reference : 16 frames
Codec ID : V_MPEG4/ISO/AVC
Duration : 9 min 3 s
Bit rate : 8 431 kb/s
Width : 1 920 pixels
Height : 1 080 pixels
Display aspect ratio : 16:9
Frame rate mode : Constant
Frame rate : 23.976 (24000/1001) FPS
Color space : YUV
Chroma subsampling : 4:2:0
Bit depth : 10 bits
Scan type : Progressive
Bits/(Pixel*Frame) : 0.170
Stream size : 546 MiB (84%)
Title : Video x264 AVC Hi10p 1080p
Writing library : x264 core 155 r2901 7d0ff22
Encoding settings : cabac=1 / ref=16 / deblock=1:-1:-1 / analyse=0x3:0x133 / me=umh / subme=10 / psy=1 / psy_rd=0.75:0.00 / mixed_ref=1 / me_range=32 / chroma_me=1 / trellis=2 / 8x8dct=1 / cqm=0 / deadzone=21,11 / fast_pskip=1 / chroma_qp_offset=-2 / threads=12 / lookahead_threads=3 / sliced_threads=0 / nr=0 / decimate=0 / interlaced=0 / bluray_compat=0 / constrained_intra=0 / bframes=16 / b_pyramid=2 / b_adapt=2 / b_bias=0 / direct=3 / weightb=1 / open_gop=0 / weightp=2 / keyint=240 / keyint_min=23 / scenecut=40 / intra_refresh=0 / rc_lookahead=60 / rc=crf / mbtree=1 / crf=14.0 / qcomp=0.72 / qpmin=0 / qpmax=81 / qpstep=4 / ip_ratio=1.40 / aq=3:0.85
Language : Japanese
Default : Yes
Forced : No
Color range : Limited
Matrix coefficients : BT.709

Audio
ID : 2
Format : FLAC
Format/Info : Free Lossless Audio Codec
Codec ID : A_FLAC
Duration : 9 min 3 s
Bit rate mode : Variable
Bit rate : 1 586 kb/s
Channel(s) : 2 channels
Channel layout : L R
Sampling rate : 48.0 kHz
Frame rate : 11.720 FPS (4096 SPF)
Bit depth : 24 bits
Compression mode : Lossless
Stream size : 103 MiB (16%)
Title : Audio FLAC 2.0
Writing library : libFLAC 1.3.2 (UTC 2017-01-01)
Language : Japanese
Default : Yes
Forced : No

Text #1
ID : 3
Format : ASS
Codec ID : S_TEXT/ASS
Codec ID/Info : Advanced Sub Station Alpha
Duration : 8 min 47 s
Bit rate : 32.1 kb/s
Count of elements : 8889
Compression mode : Lossless
Stream size : 2.02 MiB (0%)
Title : Com efeitos
Language : Portuguese
Default : Yes
Forced : No

Text #2
ID : 4
Format : ASS
Codec ID : S_TEXT/ASS
Codec ID/Info : Advanced Sub Station Alpha
Duration : 8 min 12 s
Bit rate : 489 b/s
Count of elements : 248
Compression mode : Lossless
Stream size : 29.4 KiB (0%)
Title : Sem efeitos
Language : Portuguese
Default : No
Forced : No

Menu
00:00:00.000 : :Intro
00:00:17.017 : :Mutekikyuu*Believer (Nakasu Kasumi)
00:06:20.713 : :Mirai Harmony
00:08:04.400 : :Credits```

Comments

[NKMT] Muteki Kyuu Believer + Mirai Harmony [BD 1920x1080 x264 Hi10p FLAC] [V2] [PT-BR] [A4CACE0A].mkv (652 MB)
Tracker details
Tracker 1: http://anidex.moe:6969/announce
Tracker 2: http://nyaa.tracker.wf:7777/announce
Actions: