[Nekomata] A song for You! You? You!! - μ's [BD 1080p, AAC, PT-BR, V3] +0

Torrent info
Uploader: Gavuriiru
Language: Portuguese (Brazil) Portuguese (Brazil)
Category:
Anime - Sub
Labels:
Group: Nekomata
Links:
Download: Torrent Magnet XDCC
Actions: Report
Scrape info
Date: 2021-01-13 19:15:31 UTC
File size: 708 MB
Seeders: 1
Leechers: 0
Completed: 15
Transferred: 10.4 GB
Info Hash: 59ea2b77ecbe0f51e69c7704efa947df7bef9b60
Torrent Info: [AniDex Torrent #383791]

Description

Olá olá!

Eu lancei segunda-feira, mas tinha uns pequenos problemas que acabei de corrigir, espero que gostem!

Mais uma vez usamos como base a legenda da ADF, espero que visitem eles!
Clique [aqui](https://animedreamsubs.blogspot.com/) para visitar o site deles.


Nosso servidor do Discord: https://discord.gg/zaZCRwB

Capa:
![uiui, delícia](https://cdn.discordapp.com/attachments/656140198219874335/790613139683016754/A_song_for_You_You_You.jpg "Capa")
Miniaturas:
![ayay, delícia](https://cdn.discordapp.com/attachments/656140198219874335/790614444547768340/NKMT_A_song_for_You_You_You_-_s_F7FA15C0.mkv_thumbs.jpg "Capa")

Anilist:
[Gavuriiru](https://anilist.co/user/Gavuriiru)
[LuckShiba](https://anilist.co/user/LuckShiba)



Mediainfo:
```Video
ID : 1
Format : AVC
Format/Info : Advanced Video Codec
Format profile : High@L4
Format settings : CABAC / 1 Ref Frames
Format settings, CABAC : Yes
Format settings, Reference : 1 frame
Format settings, GOP : M=1, N=25
Codec ID : V_MPEG4/ISO/AVC
Duration : 10 min 59 s
Bit rate mode : Constant
Bit rate : 8 767 kb/s
Width : 1 920 pixels
Height : 1 080 pixels
Display aspect ratio : 16:9
Frame rate mode : Variable
Frame rate : 23.976 (23976/1000) FPS
Original frame rate : 23.976 (24000/1001) FPS
Color space : YUV
Chroma subsampling : 4:2:0
Bit depth : 8 bits
Scan type : Progressive
Bits/(Pixel*Frame) : 0.176
Stream size : 688 MiB (97%)
Title : Video x264 AVC 1080p
Language : Japanese
Default : Yes
Forced : No

Audio
ID : 2
Format : AAC LC
Format/Info : Advanced Audio Codec Low Complexity
Codec ID : A_AAC-2
Duration : 10 min 59 s
Bit rate : 192 kb/s
Channel(s) : 2 channels
Channel layout : L R
Sampling rate : 48.0 kHz
Frame rate : 46.875 FPS (1024 SPF)
Compression mode : Lossy
Stream size : 15.3 MiB (2%)
Title : Audio AAC 2.0
Language : Japanese
Default : Yes
Forced : No

Text #1
ID : 3
Format : ASS
Codec ID : S_TEXT/ASS
Codec ID/Info : Advanced Sub Station Alpha
Duration : 10 min 58 s
Bit rate : 32.3 kb/s
Count of elements : 4944
Compression mode : Lossless
Stream size : 2.53 MiB (0%)
Title : Com efeitos
Language : Portuguese
Default : Yes
Forced : No

Text #2
ID : 4
Format : ASS
Codec ID : S_TEXT/ASS
Codec ID/Info : Advanced Sub Station Alpha
Duration : 10 min 4 s
Bit rate : 313 b/s
Count of elements : 209
Compression mode : Lossless
Stream size : 23.2 KiB (0%)
Title : Sem efeitos
Language : Portuguese
Default : No
Forced : No

```

Comments

[NKMT] A song for You! You You!! - μ's (BD 1920x1080 x264 AAC) [V3] [PTBR] [53617D74].mkv (708 MB)
Tracker details
Tracker 1: http://anidex.moe:6969/announce
Tracker 2: http://nyaa.tracker.wf:7777/announce
Actions: