[SwitchEncode] Nanatsu no Taizai Fundo no Shinpan - 01 [1080p WEB NF x264 AAC].mp4 +0

Torrent info
Uploader: SwitchEncode
Language: Japanese Japanese
Category:
Anime - Raw
Labels:
Group: Switch Encode
Links:
Download: Torrent Magnet XDCC
Actions: Report
Scrape info
Date: 2021-01-13 12:22:00 UTC
File size: 345 MB
Seeders: 25
Leechers: 0
Completed: 246
Transferred: 83.0 GB
Info Hash: 92d0e9ae3be561999da005ada6321dc39e7cd382
Torrent Info: [AniDex Torrent #383647]

Description

![alt text](https://i.postimg.cc/ZYLZJFwM/rsz-logo-without-anime-without-logo.jpg "Logo")
___
**Anime name >** Nanatsu no Taizai Fundo no Shinpan
**Source >** Netflix
**Subs >** None
**Audio >** Japanese
___

![alt text](https://i.postimg.cc/C5t4WnsM/vlcsnap-2021-01-13-14h09m35s141.png "Screenshot #1")
![alt text](https://i.postimg.cc/mZ6VcKWx/vlcsnap-2021-01-13-14h09m40s722.png "Screenshot #2")

General
Complete name : [SwitchEncode] Nanatsu no Taizai Fundo no Shinpan - 01 [1080p WEB NF x264 AAC].mp4
Format : MPEG-4
Format profile : Base Media
Codec ID : isom (isom/iso2/avc1/mp41)
File size : 345 MiB
Duration : 24 min 12 s
Overall bit rate : 1 995 kb/s
Writing application : Lavf58.33.100

Video
ID : 1
Format : AVC
Format/Info : Advanced Video Codec
Format profile : High@L4
Format settings : CABAC / 4 Ref Frames
Format settings, CABAC : Yes
Format settings, Reference frames : 4 frames
Codec ID : avc1
Codec ID/Info : Advanced Video Coding
Duration : 24 min 11 s
Bit rate : 1 862 kb/s
Width : 1 920 pixels
Height : 1 080 pixels
Display aspect ratio : 16:9
Frame rate mode : Variable
Frame rate : 23.976 (23976/1000) FPS
Minimum frame rate : 23.974 FPS
Maximum frame rate : 90 000.000 FPS
Color space : YUV
Chroma subsampling : 4:2:0
Bit depth : 8 bits
Scan type : Progressive
Bits/(Pixel*Frame) : 0.037
Stream size : 322 MiB (93%)
Codec configuration box : avcC

Audio
ID : 2
Format : AAC LC SBR
Format/Info : Advanced Audio Codec Low Complexity with Spectral Band Replication
Commercial name : HE-AAC
Format settings : Explicit
Codec ID : mp4a-40-2
Duration : 24 min 12 s
Bit rate mode : Constant
Bit rate : 128 kb/s
Channel(s) : 2 channels
Channel layout : L R
Sampling rate : 48.0 kHz
Frame rate : 23.438 FPS (2048 SPF)
Compression mode : Lossy
Stream size : 22.2 MiB (6%)
Language : Japanese
Default : Yes
Alternate group : 1

Comments

[SwitchEncode] Nanatsu no Taizai Fundo no Shinpan - 01 [1080p WEB NF x264 AAC].mp4 (345 MB)
Tracker details
Tracker 1: http://anidex.moe:6969/announce
Tracker 2: http://nyaa.tracker.wf:7777/announce
Tracker 3: http://tracker.anirena.com:80/announce
Tracker 4: udp://open.stealth.si:80/announce
Tracker 5: udp://tracker.opentrackr.org:1337/announce
Tracker 6: udp://exodus.desync.com:6969/announce
Tracker 7: wss://tracker.openwebtorrent.com
Tracker 8: http://open.acgnxtracker.com:80/announce
Tracker 9: udp://tracker.coppersurfer.tk:6969/announce
Tracker 10: udp://9.rarbg.to:2820/announce
Tracker 11: udp://9.rarbg.me:2980/announce
Tracker 12: udp://tracker.cyberia.is:6969/announce
Tracker 13: udp://tracker3.itzmx.com:6961/announce
Tracker 14: udp://tracker.torrent.eu.org:451/announce
Tracker 15: udp://tracker.tiny-vps.com:6969/announce
Tracker 16: udp://retracker.lanta-net.ru:2710/announce
Actions: