Maquia.When.the.Promised.Flower.Blooms.2018.1080p.Blu-Ray.10-Bit.Dual-Audio.DTS-HD.x265-iAHD.mkv +1

Torrent info
Uploader: iAHD
Language: English English
Category:
Anime - Dub
Labels:
Group: iAHD
Links:
Download: Torrent Magnet XDCC
Actions: Report
Scrape info
Date: 2021-01-07 23:38:43 UTC
File size: 7.8 GB
Seeders: 4
Leechers: 0
Completed: 130
Transferred: 1.0 TB
Info Hash: 441b9d10a52c2631534212aa5f7b92f54a099a8b
Torrent Info: [AniDex Torrent #381786]

Description

Video
ID : 1
Format : HEVC
Format/Info : High Efficiency Video Coding
Format profile : Main 10@L5@Main
Codec ID : V_MPEGH/ISO/HEVC
Duration : 1 h 54 min
Bit rate : 5 935 kb/s
Width : 1 920 pixels
Height : 1 080 pixels
Display aspect ratio : 16:9
Frame rate mode : Constant
Frame rate : 23.976 (24000/1001) FPS
Color space : YUV
Chroma subsampling : 4:2:0
Bit depth : 10 bits
Bits/(Pixel*Frame) : 0.119
Stream size : 4.77 GiB (61%)
Writing library : x265 3.2.1+1-b5c86a64bbbe:[Windows][GCC 9.2.0][64 bit] 10bit
Encoding settings : cpuid=1111039 / frame-threads=4 / numa-pools=16 / wpp / no-pmode / no-pme / no-psnr / no-ssim / log-level=2 / input-csp=1 / input-res=1920x1080 / interlace=0 / total-frames=0 / level-idc=0 / high-tier=1 / uhd-bd=0 / ref=6 / no-allow-non-conformance / no-repeat-headers / annexb / no-aud / no-hrd / info / hash=0 / no-temporal-layers / open-gop / min-keyint=24 / keyint=240 / gop-lookahead=0 / bframes=16 / b-adapt=2 / b-pyramid / bframe-bias=0 / rc-lookahead=50 / lookahead-slices=4 / scenecut=40 / radl=0 / no-splice / no-intra-refresh / ctu=32 / min-cu-size=8 / no-rect / no-amp / max-tu-size=32 / tu-inter-depth=1 / tu-intra-depth=3 / limit-tu=0 / rdoq-level=2 / dynamic-rd=0.00 / no-ssim-rd / signhide / tskip / nr-intra=0 / nr-inter=0 / no-constrained-intra / no-strong-intra-smoothing / max-merge=3 / limit-refs=3 / limit-modes / me=3 / subme=3 / merange=57 / temporal-mvp / no-hme / weightp / no-weightb / no-analyze-src-pics / deblock=1:1 / no-sao / no-sao-non-deblock / rd=4 / selective-sao=0 / no-early-skip / rskip / no-fast-intra / tskip-fast / no-cu-lossless / no-b-intra / no-splitrd-skip / rdpenalty=0 / psy-rd=0.80 / psy-rdoq=2.00 / no-rd-refine / no-lossless / cbqpoffs=0 / crqpoffs=0 / rc=crf / crf=16.0 / qcomp=0.60 / qpstep=4 / stats-write=0 / stats-read=0 / ipratio=1.40 / pbratio=1.30 / aq-mode=3 / aq-strength=1.25 / cutree / zone-count=0 / no-strict-cbr / qg-size=32 / no-rc-grain / qpmax=69 / qpmin=0 / no-const-vbv / sar=1 / overscan=0 / videoformat=5 / range=0 / colorprim=1 / transfer=1 / colormatrix=1 / chromaloc=0 / display-window=0 / cll=0,0 / min-luma=0 / max-luma=1023 / log2-max-poc-lsb=8 / vui-timing-info / vui-hrd-info / slices=1 / no-opt-qp-pps / no-opt-ref-list-length-pps / no-multi-pass-opt-rps / scenecut-bias=0.05 / no-opt-cu-delta-qp / no-aq-motion / no-hdr / no-hdr-opt / no-dhdr10-opt / no-idr-recovery-sei / analysis-reuse-level=5 / scale-factor=0 / refine-intra=0 / refine-inter=0 / refine-mv=1 / refine-ctu-distortion=0 / no-limit-sao / ctu-info=0 / no-lowpass-dct / refine-analysis-type=0 / copy-pic=1 / max-ausize-factor=1.0 / no-dynamic-refine / no-single-sei / no-hevc-aq / no-svt / no-field / qp-adaptation-range=1.00
Language : Japanese
Default : Yes
Forced : Yes
Color range : Limited
Color primaries : BT.709
Transfer characteristics : BT.709
Matrix coefficients : BT.709

Audio #1
ID : 2
Format : DTS XLL
Format/Info : Digital Theater Systems
Commercial name : DTS-HD Master Audio
Codec ID : A_DTS
Duration : 1 h 54 min
Bit rate mode : Variable
Bit rate : 1 795 kb/s
Channel(s) : 6 channels
Channel layout : C L R Ls Rs LFE
Sampling rate : 48.0 kHz
Frame rate : 93.750 FPS (512 SPF)
Bit depth : 16 bits
Compression mode : Lossless
Stream size : 1.44 GiB (19%)
Language : English
Default : Yes
Forced : No

Audio #2
ID : 3
Format : DTS XLL
Format/Info : Digital Theater Systems
Commercial name : DTS-HD Master Audio
Codec ID : A_DTS
Duration : 1 h 54 min
Bit rate mode : Variable
Bit rate : 1 942 kb/s
Channel(s) : 6 channels
Channel layout : C L R Ls Rs LFE
Sampling rate : 48.0 kHz
Frame rate : 93.750 FPS (512 SPF)
Bit depth : 16 bits
Compression mode : Lossless
Stream size : 1.56 GiB (20%)
Language : Japanese
Default : No
Forced : No

Text #1
ID : 4
Format : PGS
Codec ID : S_HDMV/PGS
Codec ID/Info : Picture based subtitle format used on BDs/HD-DVDs
Duration : 1 h 37 min
Bit rate : 884 b/s
Count of elements : 33
Stream size : 628 KiB (0%)
Title : Signs / Songs
Language : English
Default : Yes
Forced : No

Text #2
ID : 5
Format : PGS
Codec ID : S_HDMV/PGS
Codec ID/Info : Picture based subtitle format used on BDs/HD-DVDs
Duration : 1 h 52 min
Bit rate : 25.3 kb/s
Count of elements : 2386
Stream size : 20.4 MiB (0%)
Title : Dialogue
Language : English
Default : No
Forced : No

Menu
00:00:00.000 : en:Chapter 01
00:06:11.872 : en:Chapter 02
00:12:48.768 : en:Chapter 03
00:21:19.779 : en:Chapter 04
00:27:23.642 : en:Chapter 05
00:35:17.616 : en:Chapter 06
00:42:59.077 : en:Chapter 07
00:49:16.954 : en:Chapter 08
00:54:34.772 : en:Chapter 09
01:02:23.740 : en:Chapter 10
01:09:58.194 : en:Chapter 11
01:17:01.617 : en:Chapter 12
01:23:55.030 : en:Chapter 13
01:30:28.423 : en:Chapter 14
01:35:24.719 : en:Chapter 15
01:42:17.632 : en:Chapter 16
01:50:10.104 : en:Chapter 17

Comments

Maquia.When.the.Promised.Flower.Blooms.2018.1080p.Blu-Ray.10-Bit.Dual-Audio.DTS-HD.x265-iAHD.mkv (7.8 GB)
Tracker details
Tracker 1: http://anidex.moe:6969/announce
Tracker 2: http://nyaa.tracker.wf:7777/announce
Actions: