[Winter] RWBY - S07E02 - A New Approach [English][1080p] +0

Torrent info
Uploader: winter
Language: English English
Category:
Anime - Dub
Labels:
Group: Individual
Download: Torrent Magnet XDCC
Actions: Report
Scrape info
Date: 2019-11-09 16:14:37 UTC
File size: 648 MB
Seeders: 1
Leechers: 0
Completed: 348
Transferred: 220 GB
Info Hash: 56445a49a8eb51e0c4c537f03ca1cb55389809d1
Torrent Info: [AniDex Torrent #281549]

Description

RWBY - S07E02 - A New Approach

Arresting people isn’t exactly the best way to make a first impression. However, once the initial shock has worn off, Ruby and her friends learn there’s a lot more to these Ace Ops - and even General Ironwood - than first meets the eye.

General
Complete name : RWBY - S07E02 - A New Approach.mp4
Format : MPEG-4
Format profile : Base Media
Codec ID : isom (isom/iso2/avc1/mp41)
File size : 648 MiB
Duration : 18 min 17 s
Overall bit rate : 4 953 kb/s
Writing application : Lavf58.20.100

Video
ID : 1
Format : AVC
Format/Info : Advanced Video Codec
Format profile : Main@L3.1
Format settings : CABAC / 4 Ref Frames
Format settings, CABAC : Yes
Format settings, ReFrames : 4 frames
Codec ID : avc1
Codec ID/Info : Advanced Video Coding
Duration : 18 min 17 s
Bit rate : 4 800 kb/s
Width : 1 920 pixels
Height : 1 080 pixels
Display aspect ratio : 16:9
Frame rate mode : Constant
Frame rate : 24.000 FPS
Color space : YUV
Chroma subsampling : 4:2:0
Bit depth : 8 bits
Scan type : Progressive
Bits/(Pixel*Frame) : 0.096
Stream size : 631 MiB (97%)
Writing library : x264 core 148
Encoding settings : cabac=1 / ref=3 / deblock=1:0:0 / analyse=0x1:0x111 / me=hex / subme=7 / psy=1 / psy_rd=1.00:0.00 / mixed_ref=1 / me_range=16 / chroma_me=1 / trellis=1 / 8x8dct=0 / cqm=0 / deadzone=21,11 / fast_pskip=1 / chroma_qp_offset=-2 / threads=34 / lookahead_threads=5 / sliced_threads=0 / nr=0 / decimate=1 / interlaced=0 / bluray_compat=0 / constrained_intra=0 / bframes=3 / b_pyramid=2 / b_adapt=1 / b_bias=0 / direct=1 / weightb=1 / open_gop=0 / weightp=2 / keyint=96 / keyint_min=9 / scenecut=0 / intra_refresh=0 / rc_lookahead=40 / rc=abr / mbtree=1 / bitrate=4800 / ratetol=1.0 / qcomp=0.60 / qpmin=0 / qpmax=69 / qpstep=4 / ip_ratio=1.40 / aq=1:1.00

Audio
ID : 2
Format : AAC
Format/Info : Advanced Audio Codec
Format profile : LC
Codec ID : mp4a-40-2
Duration : 18 min 17 s
Bit rate mode : Constant
Bit rate : 126 kb/s
Channel(s) : 2 channels
Channel positions : Front: L R
Sampling rate : 44.1 kHz
Frame rate : 43.066 FPS (1024 SPF)
Compression mode : Lossy
Stream size : 16.4 MiB (3%)
Default : Yes
Alternate group : 1

Comments

RWBY - S07E02 - A New Approach.mp4 (648 MB)
Tracker details
Tracker 1: http://anidex.moe:6969/announce
Actions: