[Mushin] Strike the Blood OVA III - 07 (BD 720p x264 Hi10 AAC).mkv +0

Torrent info
Uploader: Mushin_zen
Language: English English
Category:
Anime - Sub
Labels:
Group: Individual
Download: Torrent Magnet XDCC
Actions: Report
Scrape info
Date: 2019-08-21 03:04:45 UTC
File size: 263 MB
Seeders: 15
Leechers: 0
Completed: 768
Transferred: 197 GB
Info Hash: 49e57f77d46143f2f91363b2e7ab389919cf5431
Torrent Info: [AniDex Torrent #261768] Share Free soft subbed

Description

Warning Explain !!!


![](https://images-na.ssl-images-amazon.com/images/I/81gobrGt01L._SY445_.jpg)
src=https://images-na.ssl-images-amazon.com/images/I/81gobrGt01L._SY445_.jpg

[Mushin] Strike the Blood OVA III - 07 (BD 720p x264 Hi10 AAC).mkv

This is anime ova to continue almost over but Fan subber & Big Group professional dropping it?!
Unfortunately, the native speaker english and professional subber don't want do it.

I like this anime, I work hard 20 days translate to finish
Of course it's not nearly native speaker yet.
I just made anime an amateur sub eng for myself and Share with friends and Free for Everyone.
Of course I used tools to help translation maybe wrong Grammar.
TL: My Skill + Advice + (Google TL, AI TL,Book Eng& Japan, Web Dic.&Grammar, Internet tool, Etc.)
TLC: Mushin Edit: Mushin Timing: Mushin Encode: Mushin QC: Mushin
Thanks OP&ED subber cradit [Harunatsu]

So please don’t expect quality " This is Hobby Sub” then enough watch Anime for Understand.(don't have V.2)
I've already tried to the best of my ability.
Yes, please! Don’t wait for improve it.

Please! don't request I not hire to do and non Profit.

P.S. I hope lean senpai will come back soon.

Sorry for any inaccuracies, English is not my first language.

I hope Fan Anime this Enjoy&Fun

Who really need download? go ahead.

Video
Format : AVC
Format profile : High [email protected]
Format settings : CABAC / 4 Ref Frames
Duration : 25 min 18 s
Bit rate : 1 157 kb/s
Width : 1 280 pixels
Height : 720 pixels
Chroma subsampling : 4:2:0
Bit depth : 10 bits
Scan type : Progressive
Bits/(Pixel*Frame) : 0.052
Stream size : 209 MiB (80%)

Audio
Format : AAC LC
Bit rate : 256 kb/s
Channel(s) : 2 channels
Stream size : 46.3 MiB (18%)
Language : Japanese

Text
Format : ASS
Title : Mushin
Language : English

Comments

[Mushin] Strike the Blood OVA III - 07 (BD 720p x264 Hi10 AAC).mkv (263 MB)
Tracker details
Tracker 1: http://anidex.moe:6969/announce
Tracker 2: udp://open.stealth.si:80/announce
Tracker 3: udp://tracker.opentrackr.org:1337/announce
Tracker 4: http://nyaa.tracker.wf:7777/announce
Tracker 5: udp://tracker.tiny-vps.com:6969/announce
Tracker 6: udp://tr.bangumi.moe:6969/announce
Tracker 7: udp://tracker.uw0.xyz:6969/
Actions: