[Mushin] The Laws of the Universe Part.1 (BD 1280x720 x265 AAC Dual Audio).mkv +0

Torrent info
Uploader: Mushin_zen
Language: English English
Category:
Anime - Sub
Labels: R
Group: Individual
Download: Torrent Magnet XDCC
Actions: Report
Scrape info
Date: 2019-06-05 01:26:41 UTC
File size: 1.6 GB
Seeders: 0
Leechers: 0
Completed: 159
Transferred: 248 GB
Info Hash: f9c79095d2ccb933edd5999514af664a6b1a5174
Torrent Info: [AniDex Torrent #249469] Share Free soft subbed

Description

Hi! Fan Anime

Warning Explain !!!

![](https://cdn.animenewsnetwork.com/thumbnails/max600x600/cms/news/133796/lotu.jpg)

[Mushin] The Laws of the Universe Part.1 (BD 1280x720 x265 AAC Dual Audio).mkv

This's Science Anime Movie as interesting and It's continuous from Part.0 and fantasy.
It' have who mix to complete so that I made subbed Eng to complete for free Everyone.
Many people may not know that It's comes out with Official subtitle and English audio.
If who want to Master quality Blu ray rib please download to this Credit complete set


" [QTS] Happy Science Anime Movie Series (2018) - The Laws of the Universe Part.1 (BD Hi10P 1920x804 Dolby TrueHD 5.1J+5.1E)"

I'm mix by ReEncode x264 1920x804 ---> x265 10 bit 1280x720p and 2ch stereo Dual audio.
Recommended play x265 with Potplayer, VLC
And Thanks for source BD Rib QTS to Share.

I hope Fan Anime this Enjoy&Fun

Who really need download? go ahead.

[Mushin] The Laws of the Universe Part.1 (BD 1280x720 x265 AAC Dual Audio).mkv

Video
Format : HEVC
Format profile : Main [email protected]@High
Duration : 1 h 59 min
Bit rate : 1 341 kb/s
Width : 1 280 pixels
Height : 720 pixels
Display aspect ratio : 16:9
Frame rate : 23.976 (24000/1001) FPS
Chroma subsampling : 4:2:0
Bit depth : 10 bits
Stream size : 1.12 GiB (72%)
Title : x265 10bit

Audio #1
Format : AAC LC
Bit rate : 253 kb/s
Channel(s) : 2 channels
Stream size : 216 MiB (13%)
Language : Japanese

Audio #2
Format : AAC LC
Bit rate : 253 kb/s
Channel(s) : 2 channels
Stream size : 216 MiB (14%)
Language : English

Text Sub

Format : ASS
Title : OCR fom Sup
Language : English

Format : PGS
Master : Sup
Language : English

Comments

[Mushin] The Laws of the Universe Part.1 (BD 1280x720 x265 AAC Dual Audio).mkv (1.6 GB)
Tracker details
Tracker 1: http://anidex.moe:6969/announce
Tracker 2: udp://tracker.opentrackr.org:1337/announce
Tracker 3: http://nyaa.tracker.wf:7777/announce
Tracker 4: udp://open.stealth.si:80/announce
Tracker 5: udp://tracker.uw0.xyz:6969/
Tracker 6: udp://tr.bangumi.moe:6969/announce
Tracker 7: udp://tracker3.itzmx.com:6961/announce
Actions: