[Mushin] Tanjou Debut OVA 01-02 (DVD x264 Hi10 768x576 AAC) 1994 +0

Torrent info
Uploader: Mushin_zen
Language: English English
Category:
Anime - Sub
Labels: B R
Group: Individual
Download: Torrent Magnet XDCC
Actions: Report
Scrape info
Date: 2019-05-29 15:21:34 UTC
File size: 811 MB
Seeders: 0
Leechers: 1
Completed: 113
Transferred: 89.5 GB
Info Hash: 0a8f590d5f88aaea6af455196479f7cd3bec3b45
Torrent Info: [AniDex Torrent #248117] Share Free soft subbed

Description

Hi-Fan Anime

Warning Explain !!!

![](https://cdn.myanimelist.net/images/anime/8/71728.jpg)

[Mushin] Tanjou Debut OVA 01-02 (DVD x264 Hi10 768x576 AAC) 1994

This's old anime classic in 1994 character from Game and cute too.
Keep in my collection
I made anime sub eng for myself and Share with friends and Free for Everyone
Main Subtitle used from VCD by typewriter and add Romaji for OP music
Second Subtitle credit D.O.M.O. (Un)Ltd.
and Dvd source 640x480 but bad picture therefore I used filter to improve it.

I hope Fan Anime this Enjoy&Fun

Who really need download? go ahead.

[Mushin] Tanjou Debut OVA 01-02 (DVD x264 Hi10 768x576 AAC) 1994

Video Enhancer with filter

Format : AVC
Format profile : High [email protected]
Format settings : CABAC / 16 Ref Frames
Duration : 27 min 34 s
Bit rate : 1 788 kb/s
Width : 768 pixels
Height : 576 pixels
Display aspect ratio : 4:3
Frame rate : 23.976 (24000/1001) FPS
Color space : YUV
Chroma subsampling : 4:2:0
Bit depth : 10 bits
Stream size : 353 MiB (87%

Audio

Format : AAC LC
Duration : 27 min 34 s
Bit rate : 256 kb/s
Channel(s) : 2 channels
Channel layout : L R
Stream size : 50.5 MiB (13%)
Language : Japanese

Text 2 subbed

Format : ASS
Language : English

1. from VCD
2. from D.O.M.O. (Un)Ltd.

Comments

Tracker details
Tracker 1: http://anidex.moe:6969/announce
Tracker 2: udp://tracker.opentrackr.org:1337/announce
Tracker 3: http://nyaa.tracker.wf:7777/announce
Tracker 4: udp://open.stealth.si:80/announce
Tracker 5: udp://tracker.uw0.xyz:6969/
Tracker 6: udp://tr.bangumi.moe:6969/announce
Tracker 7: udp://tracker3.itzmx.com:6961/announce
Actions: