[USP RAWS] Sword Art Online - 09-10 (Dual Audio) [XHCDC 5.1] 2019-05-17 16.59.ts +0

Torrent info
Uploader: Gargadon
Language: Spanish (LATAM) Spanish (LATAM)
Category:
Anime - Dub
Labels:
Group: USP RAWS
Links:
Download: Torrent Magnet XDCC
Actions: Report
Scrape info
Date: 2019-05-25 00:52:23 UTC
File size: 2.8 GB
Seeders: 0
Leechers: 0
Completed: 7
Transferred: 19.4 GB
Info Hash: e12e2c75675515033a29e64b82e11dc290b8c074
Torrent Info: [AniDex Torrent #247131]

Description

```
General
ID : 1 (0x1)
Complete name : /home/gargadon/ddl.gargadon.info/raws/[USP RAWS] Sword Art Online - 09-10 (Dual Audio) [XHCDC 5.1] 2019-05-17 16.59.ts
Format : MPEG-TS
File size : 2.78 GiB
Duration : 1 h 3 min
Overall bit rate mode : Variable
Overall bit rate : 6 215 kb/s

Video
ID : 65 (0x41)
Menu ID : 2 (0x2)
Format : MPEG Video
Format version : Version 2
Format profile : Main@Main
Format settings : CustomMatrix / BVOP
Format settings, BVOP : Yes
Format settings, Matrix : Custom
Format settings, GOP : M=3, N=18
Format settings, picture structure : Frame
Codec ID : 2
Duration : 1 h 3 min
Bit rate mode : Variable
Bit rate : 5 520 kb/s
Maximum bit rate : 5 750 kb/s
Width : 720 pixels
Height : 480 pixels
Display aspect ratio : 16:9
Active Format Description : Full frame 16:9 image
Frame rate : 29.970 (30000/1001) FPS
Standard : NTSC
Color space : YUV
Chroma subsampling : 4:2:0
Bit depth : 8 bits
Scan type : Interlaced
Scan order : Top Field First
Compression mode : Lossy
Bits/(Pixel*Frame) : 0.533
Stream size : 2.46 GiB (89%)

Audio #1
ID : 67 (0x43)
Menu ID : 2 (0x2)
Format : AC-3
Format/Info : Audio Coding 3
Codec ID : 129
Duration : 1 h 3 min
Bit rate mode : Constant
Bit rate : 192 kb/s
Channel(s) : 2 channels
Channel positions : Front: L R
Sampling rate : 48.0 kHz
Frame rate : 31.250 FPS (1536 SPF)
Bit depth : 16 bits
Compression mode : Lossy
Delay relative to video : -325 ms
Stream size : 87.8 MiB (3%)
Language : Spanish
Service kind : Complete Main

Audio #2
ID : 68 (0x44)
Menu ID : 2 (0x2)
Format : AC-3
Format/Info : Audio Coding 3
Codec ID : 129
Duration : 1 h 3 min
Bit rate mode : Constant
Bit rate : 192 kb/s
Channel(s) : 2 channels
Channel positions : Front: L R
Sampling rate : 48.0 kHz
Frame rate : 31.250 FPS (1536 SPF)
Bit depth : 16 bits
Compression mode : Lossy
Delay relative to video : -322 ms
Stream size : 87.8 MiB (3%)
Language : English
Service kind : Complete Main

Text #1
ID : 65 (0x41)-CC1
Menu ID : 2 (0x2)
Format : EIA-608
Muxing mode : A/53 / DTVCC Transport
Muxing mode, more info : Muxed in Video #1
Duration : 1 h 3 min
Bit rate mode : Constant
Stream size : 0.00 Byte (0%)
CaptionServiceName : CC1

Text #2
ID : 65 (0x41)-CC3
Menu ID : 2 (0x2)
Format : EIA-608
Muxing mode : A/53 / DTVCC Transport
Muxing mode, more info : Muxed in Video #1
Duration : 1 h 3 min
Bit rate mode : Constant
Stream size : 0.00 Byte (0%)
CaptionServiceName : CC3

Text #3
ID : 65 (0x41)-1
Menu ID : 2 (0x2)
Format : EIA-708
Muxing mode : A/53 / DTVCC Transport
Muxing mode, more info : Muxed in Video #1
Duration : 1 h 3 min
Bit rate mode : Constant
Stream size : 0.00 Byte (0%)
Language : Spanish

Text #4
ID : 65 (0x41)-2
Menu ID : 2 (0x2)
Format : EIA-708
Muxing mode : A/53 / DTVCC Transport
Muxing mode, more info : Muxed in Video #1
Duration : 1 h 3 min
Bit rate mode : Constant
Stream size : 0.00 Byte (0%)

Text #5
ID : 65 (0x41)-3
Menu ID : 2 (0x2)
Format : EIA-708
Muxing mode : A/53 / DTVCC Transport
Muxing mode, more info : Muxed in Video #1
Duration : 1 h 3 min
Bit rate mode : Constant
Stream size : 0.00 Byte (0%)

Text #6
ID : 65 (0x41)-4
Menu ID : 2 (0x2)
Format : EIA-708
Muxing mode : A/53 / DTVCC Transport
Muxing mode, more info : Muxed in Video #1
Duration : 1 h 3 min
Bit rate mode : Constant
Stream size : 0.00 Byte (0%)

Text #7
ID : 65 (0x41)-5
Menu ID : 2 (0x2)
Format : EIA-708
Muxing mode : A/53 / DTVCC Transport
Muxing mode, more info : Muxed in Video #1
Duration : 1 h 3 min
Bit rate mode : Constant
Stream size : 0.00 Byte (0%)

Text #8
ID : 65 (0x41)-6
Menu ID : 2 (0x2)
Format : EIA-708
Muxing mode : A/53 / DTVCC Transport
Muxing mode, more info : Muxed in Video #1
Duration : 1 h 3 min
Bit rate mode : Constant
Stream size : 0.00 Byte (0%)

Menu
ID : 32 (0x20)
Menu ID : 2 (0x2)
Duration : 1 h 3 min
List : 65 (0x41) (MPEG Video) / 67 (0x43) (AC-3, Spanish) / 68 (0x44) (AC-3, English)
Language : / Spanish / English
```

Comments

[USP RAWS] Sword Art Online - 09-10 (Dual Audio) [XHCDC 5.1] 2019-05-17 16.59.ts (2.8 GB)
Tracker details
Tracker 1: http://anidex.moe:6969/announce
Tracker 2: http://nyaa.tracker.wf:7777/announce
Actions: