[Mushin] NG Knight Ramune & 40 EX OVA 01 (DVD 640x480 x264 ACC 1991).mkv +2

Torrent info
Uploader: Mushin_zen
Language: English English
Category:
Anime - Sub
Labels: R
Group: Individual
Download: Torrent Magnet XDCC
Actions: Report
Scrape info
Date: 2019-03-06 15:17:25 UTC
File size: 284 MB
Seeders: 1
Leechers: 0
Completed: 124
Transferred: 34.4 GB
Info Hash: 0693943e540897f22668d684ce64acba52f864a6
Torrent Info: [AniDex Torrent #229870] share anime sub

Description

Hi-Fan Anime

warning

This anime NG Knight Ramune & 40 EX OVA 1-3 end Series (DVD 640x480 x264 ACC 1991)

![](https://cdn.myanimelist.net/images/anime/7/22771.jpg)

The NG Knight Ramune & 40 EX and DX OVA Series Don’t have real fan-subbed made it

This story used to watch TV when the children were thinking about it.
“I make Hobby Sub Eng to watch for myself and save anime this “
Share Free soft subbed for someone want edit or translate.
Of course I translation by tools all (Google ,Web dictionary,other,books) maybe wrong Grammar
So please don’t expect quality " This is Hobby Sub” then enough watch Anime for Understand.

” I translated by my understand. I guess some sentence."
" I hope real fan-sub will improve to best."
Sorry for any inaccuracies, English is not my first language.

I hope Fan Anime this Enjoy&Fun

Who really want download? go ahead.

[Mushin] NG Knight Ramune & 40 EX OVA 01 (DVD 640x480 x264 ACC 1991).mkv

Video
ID : 1
Format : AVC
Format profile : [email protected]
Format settings : 1 Ref Frames
Format settings, CABAC : No
Format settings, RefFrames : 1 frame
Format settings, GOP : M=1, N=33
Duration : 29 min 7 s
Bit rate mode : Variable
Bit rate : 1 200 kb/s
Width : 640 pixels
Height : 480 pixels
Display aspect ratio : 4:3
Chroma subsampling : 4:2:0
Bit depth : 8 bits
Bits/(Pixel*Frame) : 0.163
Stream size : 250 MiB (88%)

Audio

ID : 2
Format : AAC LC
Duration : 29 min 7 s
Bit rate : 160 kb/s
Channel(s) : 2 channels
Channel layout : L R
Sampling rate : 48.0 kHz
Stream size : 33.3 MiB (12%)
Language : Japan

Text Sub
Format : ASS
Language : English

Comments

[Mushin] NG Knight Ramune & 40 EX OVA 01 (DVD 640x480 x264 ACC 1991).mkv (284 MB)
Tracker details
Tracker 1: http://anidex.moe:6969/announce
Tracker 2: http://nyaa.tracker.wf:7777/announce
Tracker 3: udp://tracker.tiny-vps.com:6969/announce
Tracker 4: udp://open.stealth.si:80/announce
Tracker 5: udp://tracker.opentrackr.org:1337/announce
Tracker 6: udp://tracker.coppersurfer.tk:6969/announce
Actions: