[Wien-Subs] Tsubasa Chronicle - 07.mkv +0

Torrent info
Uploader: fmohican
Language: English English
Category:
Anime - Sub
Labels:
Group: Wien-Subs
Links:
Download: Torrent Magnet XDCC
Actions: Report
Scrape info
Date: 2016-02-29 15:19:33 UTC
File size: 605 MB
Seeders: 0
Leechers: 2
Completed: 0
Transferred: 0 B
Info Hash: 9aec4c871541f1c810a5734354641832c5ceea98
Torrent Info: [AniDex Torrent #21543] http://en.wien-subs.ro

Description

Hello, we are a group of people who translate Japanese series.
And we want to do this a long time.
We will be more unique fansub, and we will translate only anime that deserves translated.
http://en.wien-subs.ro - High Quality Subs [English & Raw]
If you want to suport us you can enter on this site http://en.wien-subs.ro/2016/02/29/tsubasa-chronicle-07/ or you can let a comment, feedback is very important for us since we are new in this World of Fansubs.

[size=32]We like to present Tsubasa Chronicle - 07[/size]



During an excavation at the mysterious ruins in Clow Country, Syaoran discovers his childhood friend Princess Sakura appear on the site with wings that disperse into many feathers.
As the feather's disappear to different dimensions, so does Sakura's memory. In attempts to save Sakura's life and restore her memory, Syaoran travels through to another world to find a solution.
There's only one thing left he can do. Travel through to different dimensions to collect Sakura's feathers.
Helping out with the quest is Kurogane, an exiled ninja from Japan Country who wishes to return to his world, the runaway magician, Fay, who desires to jump between each world never to return to his own and the white meat-bun shaped creature, Mokona.



About Tsubasa Chronicle
Type : TV
Synonyms : Tsubasa Reservoir Chronicle OR Tsubasa Chronicle Season 1
Episodes : 26
Released at : 09.04.2005
Finished at : 15.09.2005
Duration : 25 min / ep
Geners : Action, Adventure, Fantasy, Magic, Romance, Shounen, Supernatural
Rating : PG - 13 (Teens 13 or older)
MyAnimeList : Tsubasa Chronicle
YouTube : https://www.youtube.com/watch?v=YtNS9u0o5ps

Episode Feature
Subtitles : Yes | EN (SoftSub)
Emblem : No
SceneCut : No
Audio : Yes | JP
Format : MKV | X264 | 10Biti | Filtered
Rezolution : 1920x1080 @ 23.976 fps
Encoded : 10Bit


Wien-Subs is currently looking for Translators, Verifiers and Typesetters
Special Thanks [KazuyaShuu, AlinKun and DiceSenshibooks]



===============================
+Advenced Tehnical Information+
===============================
General
Unique ID : 201320429227924274428354927250493617993 (0x9774E780A4C0DB91A8CC27E865373749)
Complete name : \home\workspace\[Wien-Subs] Tsubasa Chronicle - 07.mkv
Format : Matroska
Format version : Version 4 / Version 2
File size : 605 MiB
Duration : 25mn 0s
Overall bit rate : 3 382 Kbps
Encoded date : UTC 2016-02-27 16:18:35
Writing application : mkvmerge v8.4.0 ('A better way to fly') 64bit
Writing library : libebml v1.3.1 + libmatroska v1.4.2
DURATION : 00:24:54.030000000
NUMBER_OF_FRAMES : 255
NUMBER_OF_BYTES : 16750
_STATISTICS_WRITING_APP : mkvmerge v8.4.0 ('A better way to fly') 64bit
_STATISTICS_WRITING_DATE_UTC : 2016-02-27 16:18:35
_STATISTICS_TAGS : BPS DURATION NUMBER_OF_FRAMES NUMBER_OF_BYTES

Video
ID : 1
Format : AVC
Format/Info : Advanced Video Codec
Format profile : High 10@L5.0
Format settings, CABAC : Yes
Format settings, ReFrames : 6 frames
Codec ID : V_MPEG4/ISO/AVC
Duration : 25mn 1s
Bit rate : 2 675 Kbps
Width : 1 920 pixels
Height : 1 080 pixels
Display aspect ratio : 16:9
Frame rate mode : Constant
Frame rate : 23.976 fps
Color space : YUV
Chroma subsampling : 4:2:0
Bit depth : 10 bits
Scan type : Progressive
Bits/(Pixel*Frame) : 0.054
Stream size : 479 MiB (79%)
Writing library : x264 core 148 r2665 a01e339
Encoding settings : cabac=1 / ref=6 / deblock=1:1:1 / analyse=0x3:0x113 / me=umh / subme=10 / psy=1 / psy_rd=0.40:0.00 / mixed_ref=1 / me_range=32 / chroma_me=1 / trellis=2 / 8x8dct=1 / cqm=0 / deadzone=21,11 / fast_pskip=1 / chroma_qp_offset=-2 / threads=9 / lookahead_threads=1 / sliced_threads=0 / nr=0 / decimate=1 / interlaced=0 / bluray_compat=0 / constrained_intra=0 / bframes=5 / b_pyramid=2 / b_adapt=1 / b_bias=0 / direct=1 / weightb=1 / open_gop=0 / weightp=2 / keyint=250 / keyint_min=23 / scenecut=40 / intra_refresh=0 / rc_lookahead=40 / rc=crf / mbtree=1 / crf=17.0 / qcomp=0.60 / qpmin=0 / qpmax=81 / qpstep=4 / ip_ratio=1.40 / aq=3:0.80
Default : Yes
Forced : No

Audio
ID : 2
Format : AC-3
Format/Info : Audio Coding 3
Mode extension : CM (complete main)
Format settings, Endianness : Big
Codec ID : A_AC3
Duration : 25mn 0s
Bit rate mode : Constant
Bit rate : 640 Kbps
Channel(s) : 2 channels
Channel positions : Front: L R
Sampling rate : 48.0 KHz
Bit depth : 16 bits
Compression mode : Lossy
Stream size : 115 MiB (19%)
Default : Yes
Forced : No

Text
ID : 3
Format : ASS
Codec ID : S_TEXT/ASS
Codec ID/Info : Advanced Sub Station Alpha
Compression mode : Lossless
Title : English (forced)
Language : English
Default : Yes
Forced : Yes

Comments

[Wien-Subs] Tsubasa Chronicle - 07.mkv (605 MB)
Tracker details
Tracker 1: http://anidex.moe:6969/announce
Tracker 2: http://open.nyaatorrents.info:6544/announce
Tracker 3: udp://tracker.opentrackr.org:1337/announce
Actions: