貴方だけこんばんわ 01 [Eng subs]....Uncensored +0

Torrent info
Uploader: Bl4ckHaT7
Language: Japanese Japanese
Category:
Anime - Sub
Labels: H
Group: Individual
Download: Torrent Magnet XDCC
Actions: Report
Scrape info
Date: 2018-08-02 08:41:47 UTC
File size: 93.9 MB
Seeders: 1
Leechers: 0
Completed: 350
Transferred: 32.1 GB
Info Hash: f48bc2c4b492ca7f31a9c8fab55b0d76e72dabb5
Torrent Info: [AniDex Torrent #171213]

Description

Uploading by : #NyaaLover

https://www.vestimage.site/site/v/6968949#2346&6968949

https://www.vestimage.site/site/v/6968949#2346&6968950

https://www.vestimage.site/site/v/6968949#2346&6968951

https://www.vestimage.site/site/v/6968949#2346&6968952

https://www.vestimage.site/site/v/6968949#2346&6968953



Video
ID : 1
Format : AVC
Format/Info : Advanced Video Codec
Format profile : [email protected]
Format settings, CABAC : Yes
Format settings, ReFrames : 4 frames
Codec ID : avc1
Codec ID/Info : Advanced Video Coding
Duration : 29mn 24s
Bit rate : 379 Kbps
Width : 720 pixels
Height : 404 pixels
Display aspect ratio : 16:9
Original display aspect rat : 16:9
Frame rate mode : Constant
Frame rate : 24.000 fps
Color space : YUV
Chroma subsampling : 4:2:0
Bit depth : 8 bits
Scan type : Progressive
Bits/(Pixel*Frame) : 0.054
Stream size : 79.7 MiB (85%)
Writing library : x264 core 150 r2833 df79067
Encoding settings : cabac=1 / ref=3 / deblock=1:-2:-2 / analyse=0x1:0x111 / me=hex / subme=7 / psy=1 / psy_rd=1.00:0.25 / mixed_ref=1 / me_range=16 / chroma_me=1 / trellis=1 / 8x8dct=0 / cqm=0 / deadzone=6,6 / fast_pskip=1 / chroma_qp_offset=-4 / threads=8 / lookahead_threads=1 / sliced_threads=0 / nr=0 / decimate=0 / interlaced=0 / bluray_compat=0 / constrained_intra=0 / bframes=3 / b_pyramid=2 / b_adapt=1 / b_bias=0 / direct=1 / weightb=1 / open_gop=0 / weightp=2 / keyint=250 / keyint_min=50 / scenecut=40 / intra_refresh=0 / rc_lookahead=40 / rc=crf / mbtree=1 / crf=22.0 / qcomp=0.80 / qpmin=0 / qpmax=69 / qpstep=4 / vbv_maxrate=1200 / vbv_bufsize=2400 / crf_max=0.0 / nal_hrd=none / filler=0 / ip_ratio=1.10 / aq=1:0.50
Tagged date : UTC 2017-12-12 23:52:03

Audio
ID : 2
Format : AAC
Format/Info : Advanced Audio Codec
Format profile : LC
Codec ID : 40
Duration : 29mn 24s
Source duration : 29mn 24s
Bit rate mode : Constant
Bit rate : 64.0 Kbps
Channel(s) : 2 channels
Channel(s)_Original : 1 channel
Channel positions : Front: C
Sampling rate : 24.0 KHz
Compression mode : Lossy
Stream size : 13.5 MiB (14%)
Source stream size : 13.5 MiB (14%)
Tagged date : UTC 2017-12-12 23:52:03

Comments

貴方だけこんばんわ 01 [Eng subs].mp4 (93.9 MB)
Tracker details
Tracker 1: http://anidex.moe:6969/announce
Tracker 2: udp://open.stealth.si:80/announce
Tracker 3: http://retracker.mgts.by/announce
Tracker 4: http://retracker.telecom.by/announce
Tracker 5: udp://tracker.pirateparty.gr:6969/announce
Tracker 6: udp://eddie4.nl:6969/announce
Tracker 7: udp://shadowshq.yi.org:6969/announce
Tracker 8: udp://bt.firebit.co.uk:6969/announce
Tracker 9: udp://tracker.internetwarriors.net:1337/announce
Tracker 10: http://sukebei.tracker.wf:8888/announce
Tracker 11: udp://tracker.coppersurfer.tk:6969/announce
Tracker 12: http://sukebei.tracker.wf:8888/announce
Tracker 13: udp://tracker.coppersurfer.tk:80/announce
Tracker 14: udp://bt.xxx-tracker.com:2710/announce
Tracker 15: udp://open.stealth.si:80/announce
Tracker 16: udp://tracker.opentrackr.org:1337/announce
Tracker 17: udp://opentrackr.org:1337/announce
Tracker 18: http://82.209.230.66/announce
Actions: