[Mushin] UQ Holder! OAD3 (DVD 1024x576 Hi10 AAC).mkv +0

Torrent info
Uploader: Mushin_zen
Language: English English
Category:
Anime - Sub
Labels: R
Group: Individual
Download: Torrent Magnet XDCC
Actions: Report
Scrape info
Date: 2018-07-06 13:38:35 UTC
File size: 237 MB
Seeders: 0
Leechers: 0
Completed: 520
Transferred: 120 GB
Info Hash: 905ac45f7a93ce210350596670f08260f64ecdb9
Torrent Info: [AniDex Torrent #161865] share anime sub

Description

Hi-Fan Anime
warning
This anime come to Oad 3 unfortunately Don’t have real fan subbed.
I make Hobby Sub Eng to watch for myself and share Free soft subbed for someone want edit.
Of course I translation By tools all (Google ,Web dictionary,other) maybe wrong Grammar
I take some sentence form manga that mean same or nearby anime.
So please don’t expect quality " This is Hobby Sub" then enough watch Anime for Understand.
I translated by my understand. I guess some sentence.
I hope real fan-sub to improve to best.
Sorry for any inaccuracies, English is not my first language.

I Hope Fan Anime this Enjoy&Fun

Who want download? go ahead.

Video
Format : AVC
Format profile : High [email protected]
Format settings, RefFrames : 16 frames
Duration : 22 min 41 s
Bit rate : 1 257 kb/s
Width : 1 024 pixels
Height : 576 pixels
Display aspect ratio : 16:9
Chroma subsampling : 4:2:0
Bit depth : 10 bits
Stream size : 204 MiB (86%)

Audio
Format : AAC
Format profile : LC
Duration : 22 min 41 s
Bit rate : 198 kb/s
Channel(s) : 2 channels
Stream size : 32.1 MiB (14%)
Title : AAC 2ch

Sub Txt
Format : ASS
Title : Mushin
Language : English

Anyone wanting to do their own release is free to use any part of this torrent without permission or credit.

Comments

[Mushin] UQ Holder! OAD3 (DVD 1024x576 Hi10 AAC).mkv (237 MB)
Tracker details
Tracker 1: http://anidex.moe:6969/announce
Tracker 2: http://nyaa.tracker.wf:7777/announce
Tracker 3: udp://tracker.tiny-vps.com:6969/announce
Tracker 4: udp://open.stealth.si:80/announce
Tracker 5: udp://tracker.opentrackr.org:1337/announce
Tracker 6: udp://tracker.coppersurfer.tk:6969/announce
Actions: