[Mushin] Strike the Blood Third Ⅲ OVA 01 Tartaros-Roses Ⅰ (BD 1280x720p XAVC AAC).mkv +0

Torrent info
Uploader: Mushin_zen
Language: English English
Category:
Anime - Sub
Labels: R
Group: Individual
Download: Torrent Magnet XDCC
Actions: Report
Scrape info
Date: 2019-01-07 05:18:22 UTC
File size: 301 MB
Seeders: 3
Leechers: 0
Completed: 645
Transferred: 190 GB
Info Hash: c40721baa35de8eb29dbbd5d143994a5bbc7291e
Torrent Info: [AniDex Torrent #216973] share anime sub

Description

Hi-Fan Anime
warning
This anime Strike the Blood Third Ⅲ OVA 01 Tartaros-Roses Ⅰ BD already
Don’t have real fan-subbed made it ( Maybe It's still waiting so long for OVA anime??? )
but I don’ give up , I need watch anime service this.
“I make Hobby Sub Eng to watch for myself and save anime this “
Share Free soft subbed for someone want edit or translate.
Of course I translation by tools all (Google ,Web dictionary,other,books) maybe wrong Grammar
So please don’t expect quality " This is Hobby Sub” then enough watch Anime for Understand.
” I translated by my understand. I guess some sentence."
" I hope real fan-sub will improve to best."
Sorry for any inaccuracies, English is not my first language.

I hope Fan Anime this Enjoy&Fun

Who want download? go ahead.

[Mushin] Strike the Blood Third Ⅲ OVA 01 Tartaros-Roses Ⅰ (BD 1280x720p XAVC AAC).mkv

Video
Format : AVC
Format profile : High 4:2:[email protected]
Format settings : CABAC / 4 Ref Frames
Duration : 26 min 50 s
Bit rate : 1 308 kb/s
Width : 1 280 pixels
Height : 720 pixels
Display aspect ratio : 16:9
Frame rate : 23.976 (24000/1001) FPS
Chroma subsampling : 4:2:2
Bit depth : 10 bits
Stream size : 251 MiB (83%)


Audio
Format : AAC LC
Duration : 26 min 50 s
Bit rate : 256 kb/s
Channel(s) : 2 channels
Stream size : 49.2 MiB (16%)

Text Sub
Format : ASS
Language : English


Comments

[Mushin] Strike the Blood Third Ⅲ OVA 01 Tartaros-Roses Ⅰ (BD 1280x720p XAVC AAC).mkv (301 MB)
Tracker details
Tracker 1: http://anidex.moe:6969/announce
Tracker 2: http://nyaa.tracker.wf:7777/announce
Tracker 3: udp://tracker.tiny-vps.com:6969/announce
Tracker 4: udp://open.stealth.si:80/announce
Tracker 5: udp://tracker.opentrackr.org:1337/announce
Tracker 6: udp://tracker.coppersurfer.tk:6969/announce
Actions: