[Mushin] Yuragi-sou no Yuuna-san OVA 03 [x264 720p].mkv +0

Torrent info
Uploader: Mushin_zen
Language: English English
Category:
Anime - Sub
Labels: R
Group: Individual
Download: Torrent Magnet XDCC
Actions: Report
Scrape info
Date: 2018-12-27 03:10:14 UTC
File size: 202 MB
Seeders: 10
Leechers: 2
Completed: 413
Transferred: 81.6 GB
Info Hash: 310e8e035c60c63e811aa72a2a471c9792330231
Torrent Info: [AniDex Torrent #215016] share anime sub

Description

Hi-Fan Anime
warning
This anime Yuragi-sou no Yuuna-san OVA 03
Don’t have real fan-subbed made it
but I don’ give up , I need watch?
“I make Hobby Sub Eng to watch for myself and save anime this “
Share Free soft subbed for someone want edit or translate.
Of course I translation by tools all (Google ,Web dictionary,other,books) maybe wrong Grammar
So please don’t expect quality " This is Hobby Sub” then enough watch Anime for Understand.
I take sentences from manga used in anime as mean near or same to understand.
” I translated by my understand. I guess some sentence."
" I hope real fan-sub will improve to best."
Sorry for any inaccuracies, English is not my first language.

I hope Fan Anime this Enjoy&Fun

Who want download? go ahead.

[Mushin] Yuragi-sou no Yuuna-san OVA 03 [x264 720p].mkv

Video
Format : AVC
Format settings, RefFrames : 6 frames
Duration : 21 min 12 s
Bit rate : 1 181 kb/s
Width : 1 280 pixels
Height : 720 pixels
Display aspect ratio : 16:9
Bit depth : 8 bits
Stream size : 179 MiB (89%)

Audio
Format : AAC LC
Duration : 21 min 12 s
Bit rate : 149 kb/s
Channel(s) : 2 channels
Stream size : 22.5 MiB (11%)

Text Sub

Format : ASS
Language : English

Comments

[Mushin] Yuragi-sou no Yuuna-san OVA 03 [x264 720p].mkv (202 MB)
Tracker details
Tracker 1: http://anidex.moe:6969/announce
Tracker 2: http://nyaa.tracker.wf:7777/announce
Tracker 3: udp://tracker.tiny-vps.com:6969/announce
Tracker 4: udp://open.stealth.si:80/announce
Tracker 5: udp://tracker.opentrackr.org:1337/announce
Tracker 6: udp://tracker.coppersurfer.tk:6969/announce
Actions: